<?xml version="1.0" standalone="no"?>
<!DOCTYPE svg PUBLIC "-//W3C//DTD SVG 1.1//EN" "http://www.w3.org/Graphics/SVG/1.1/DTD/svg11.dtd" >
<svg xmlns="http://www.w3.org/2000/svg" xmlns:xlink="http://www.w3.org/1999/xlink" version="1.1">
<metadata>
Created by FontForge 20150715 at Fri Oct 28 12:23:00 2016
 By Timothy Anido
(c) H.A. Simon, 1996. Published by FontShop International FontFont release 18
</metadata>
<defs>
<font id="Market-Bold" horiz-adv-x="510" >
  <font-face 
    font-family="Market-Bold"
    font-weight="700"
    font-stretch="normal"
    units-per-em="1000"
    panose-1="2 0 8 3 0 0 0 0 0 0"
    ascent="800"
    descent="-200"
    x-height="453"
    cap-height="639"
    bbox="-178 -438 1064 929"
    underline-thickness="64"
    underline-position="-224"
    unicode-range="U+0001-20AC"
  />
<missing-glyph horiz-adv-x="500" 
d="M50 0v533h400v-533h-400zM100 50h300v433h-300v-433z" />
    <glyph glyph-name=".notdef" horiz-adv-x="500" 
d="M50 0v533h400v-533h-400zM100 50h300v433h-300v-433z" />
    <glyph glyph-name=".null" horiz-adv-x="0" 
 />
    <glyph glyph-name="nonmarkingreturn" horiz-adv-x="333" 
 />
    <glyph glyph-name="uni0001" horiz-adv-x="572" 
d="M257 247q-18 -47 -31 -101q-18 -71 -18 -88q0 -6 18 -6q47 0 86 39q125 125 201 318q23 58 23 78q0 8 -1.5 17t-7 24t-20 24.5t-35.5 9.5q-14 0 -31.5 -4.5t-33 -10.5t-18.5 -7q-5 -1 -5 -4v-2q1 -2 1 -5q0 -6 -9 -16t-10 -13q-8 -18 -26.5 -58.5t-26.5 -58.5
q-9 -21 -9 -22q0 -3 3 -3t23.5 2.5t37.5 2.5q7 0 14 -10q10 -14 10 -31q0 -10 -4 -19.5t-9.5 -16.5t-6.5 -9q-4 -8 -32 -12q-15 -2 -70 -7q-9 -1 -13 -11zM111 124q5 22 13 50.5t13.5 46t5.5 18.5q0 3 -3 3q-2 0 -11.5 -1t-11.5 -1q-33 0 -33 20q0 42 25 65q10 9 40.5 13.5
t32.5 10.5q9 25 20 52q8 21 8 26q0 4 -3 4q-2 0 -8.5 -1.5t-9.5 -1.5q-14 0 -25.5 10.5t-11.5 32.5q0 27 10 40q9 13 63 50q107 75 213 75q48 0 79 -12.5t69 -41.5q30 -23 46.5 -47.5t16.5 -63.5q0 -51 -28 -107q-3 -7 -8 -18.5t-10 -22.5q-28 -59 -52.5 -103t-57.5 -91.5
t-73 -82.5t-85 -56q-36 -17 -64 -17q-16 0 -32 2t-25 4.5t-10 2.5t-7 -3t-27 -3q-19 0 -44 17q-11 7 -17.5 15.5t-14.5 11.5q-79 31 -79 71q0 22 29 22q6 0 21.5 -1.5t18.5 -1.5q2 0 7 -1.5t8 -1.5q5 0 7 2.5t5 14.5z" />
    <glyph glyph-name="uni0002" horiz-adv-x="400" 
d="M237 482q-24 -17 -40 -17t-28 17q-10 14 -10 25q0 18 13 27q4 3 6.5 7t16.5 13q20 12 31 18q19 9 19 12q0 4 -8 14q-9 12 -25 28q-5 5 -18.5 17t-23.5 22t-14 16q-7 11 -7 22q0 23 20 27q6 1 16.5 7.5t18.5 6.5q10 0 44 -22q31 -20 31 -33q0 -5 10 -15q5 -5 26 -31
q13 -16 17 -16q2 0 12.5 6.5t26 16t26.5 14.5q8 4 18 4q21 0 42 -21q8 -8 8 -15q0 -8 -9.5 -18.5t-9.5 -13.5q0 -5 -5.5 -10t-14 -10.5t-16.5 -10t-16.5 -8.5t-10.5 -5q-7 -4 -7 -6q0 -1 8 -21q35 -87 35 -197q0 -87 -41 -179t-114 -150q-26 -21 -56 -21q-37 0 -69 17
q-12 7 -27.5 14t-21 10t-12 11t-12.5 21q-16 36 -16 85q0 56 19.5 113.5t48.5 92.5l39 52q13 18 37.5 35.5t54.5 17.5q21 0 40 -9q6 -3 11.5 -6.5t8 -5t4.5 -1.5t2 3q0 9 -12 45q-11 33 -15 33q-5 0 -18 -7q-12 -6 -33 -21zM310 291q-7 0 -11 16q0 1 -5.5 22.5t-9.5 31.5
q-5 15 -12 15q-18 0 -35 -27q-33 -51 -47.5 -77t-27 -67.5t-12.5 -87.5q0 -55 27 -55q14 0 35 21q50 50 79 122q23 56 23 80q0 6 -4 6z" />
    <glyph glyph-name="uni0003" horiz-adv-x="470" 
d="M265 247q-28 -73 -55 -147q-8 -22 -8 -31t6 -9q18 1 58 13q83 24 166 59q8 3 17 3q26 0 55 -16.5t29 -30.5q0 -1 2.5 -8.5t2.5 -10.5q0 -9 -4 -14q-4 -7 -14 -9t-25 -2.5t-24 -2.5q-31 -7 -87 -27.5t-106.5 -33.5t-99.5 -13q-51 0 -96 63q-5 6 -5 18q0 14 9.5 40t10.5 32
q3 18 9 35q13 36 13 40q0 3 -4 3q-15 0 -22.5 11.5t-7.5 27.5q0 9 1 14t3.5 9t3.5 7q6 20 38 31q24 8 29.5 11.5t9.5 11.5q25 55 76.5 164t76.5 163q6 14 34 14q14 0 25.5 -6.5t12.5 -6.5q40 -10 40 -34q0 -8 -6 -22t-6 -15q-3 -15 -9 -20q-25 -22 -48 -83q-3 -8 -12 -25
t-15 -29q-3 -5 -7 -14.5t-6 -14.5q-4 -8 -4 -12q0 -2 2 -2q3 0 35.5 14.5t47.5 14.5q16 0 25.5 -10t9.5 -21q0 -19 -6.5 -33.5t-7.5 -18.5t-4 -6.5t-7 -4t-9.5 -3.5t-9.5 -4q-13 -8 -33 -16t-48 -17t-39 -13q-9 -4 -13 -13z" />
    <glyph glyph-name="uni0004" horiz-adv-x="254" 
d="M39 180q-14 0 -24 13q-7 8 -7 21q0 22 14 40q7 10 22 17q27 12 39 22t24 35q17 36 68 133.5t81 155.5q35 69 59 88t65 19q32 0 44 -18q9 -13 9 -26q0 -14 -13 -34q-17 -27 -76 -116t-87 -138q-8 -14 -8 -17q0 -2 2 -2q4 0 21 8q47 20 83 20q27 0 27 -26q0 -23 -4.5 -31
t-25.5 -23q-11 -8 -43.5 -18t-40.5 -14t-22.5 -9.5t-23 -9.5t-18.5 -9.5t-17 -11.5q-9 -7 -17 -30q-3 -8 -12.5 -30t-13 -32.5t-7.5 -31t-4 -42.5t9 -22q4 0 8 3q21 14 48.5 43.5t49.5 48t45 18.5q15 0 32.5 -8.5t17.5 -23.5q0 -5 -2 -9.5t-3.5 -6.5t-7 -7t-6.5 -6
q-2 -3 -24 -29.5t-40 -46t-47.5 -37.5t-55.5 -18q-9 0 -18 2q-52 11 -83 44q-24 25 -24 67q0 11 1.5 23t3.5 21.5t4 18t3 13.5l2 5q0 4 -7 4z" />
    <glyph glyph-name="uni0005" horiz-adv-x="432" 
d="M340 508q0 -46 13 -101q2 -10 32 -120t38 -156q7 -42 7 -60q0 -72 -64 -96q-13 -5 -44 -5q-71 0 -136.5 37t-115.5 99q-6 7 -15.5 18t-13.5 16q-29 41 -29 83q0 34 22 43q6 2 12 2q28 0 59 -18q15 -9 27 -21.5t12 -18.5q0 -7 -2.5 -18t-2.5 -17q0 -22 32 -55t63 -50
q37 -21 51 -21q16 0 22.5 11.5t6.5 20.5q0 48 -4 74q-9 59 -38 158.5t-38 149.5q-10 52 -10 75q0 10 3 23q1 3 3 16t4 21t7 20t11.5 19t18 12.5t26.5 5.5q52 0 91.5 -14t61 -37.5t32.5 -46.5t15 -48q5 -28 5 -29q0 -21 -29 -21q-8 0 -23 4q-7 2 -14 5t-13.5 8.5t-9.5 8
t-9.5 9.5t-7.5 8q-4 4 -9 26t-9 30q-8 15 -19 15q-6 0 -12.5 -20.5t-6.5 -44.5zM348 863q1 0 8.5 1t10.5 1q22 0 25 -13q1 -10 34 -60q6 -9 11 -9q8 0 32 13l63 33q14 7 23 7q11 0 18.5 -7t7.5 -19q0 -4 0.5 -10t0.5 -9q0 -17 -24 -32l-110 -68q-5 -3 -9.5 -4.5t-5.5 -1.5
q-6 -3 -12 -3q-21 0 -34 17l-48 69q-22 32 -22 53q0 18 18 36q6 6 13 6z" />
    <glyph glyph-name="uni0006" horiz-adv-x="296" 
d="M258 421q-17 -20 -28 -41q-15 -27 -15 -58q0 -47 20 -171q17 -106 17 -126q0 -16 -25.5 -36.5t-57.5 -20.5q-15 0 -29 6q-93 38 -150 137q-7 12 -7 18q0 12 13.5 26t35.5 14q16 0 25 -4q18 -9 24 -16q6 -8 22.5 -38t29.5 -44q11 -12 13 -12t2 3q0 4 -13 77
q-23 126 -23 180q0 23 9.5 59.5t26.5 62.5q20 31 47 48.5t48 17.5q73 0 112 -42q21 -22 21 -67q0 -47 -29 -84q-10 -13 -22 -13q-28 0 -49 17q-17 14 -17 33q0 9 3 13q17 31 17 48q0 9 -3 15q-4 7 -7 7t-11 -9zM267 721q1 0 8.5 1t10.5 1q22 0 25 -13q1 -10 34 -60
q6 -9 11 -9q8 0 32 13l63 33q14 7 23 7q11 0 18.5 -7t7.5 -19q0 -4 0.5 -10t0.5 -9q0 -17 -24 -32l-110 -68q-5 -3 -9.5 -4.5t-5.5 -1.5q-6 -3 -12 -3q-21 0 -34 17l-48 69q-22 32 -22 53q0 18 18 36q6 6 13 6z" />
    <glyph glyph-name="uni0007" horiz-adv-x="502" 
d="M326 190q-42 -28 -83 -28q-17 0 -28 5q-35 16 -62 40q-42 37 -42 61q0 25 6 105q0 3 2 14t2 21q0 13 5 27.5t5 18.5q2 23 18 107t29 106q5 9 20 9q11 0 33.5 -4.5t26.5 -4.5q14 -1 20.5 -14.5t6.5 -23.5q0 -15 -10 -38t-12 -33q-34 -170 -40 -238q-5 -54 -5 -64
q0 -12 5 -12q8 0 19 7q83 52 127 105t90 140q32 60 32 61q20 35 34 53q7 8 15 8q48 0 74 -28q13 -15 13 -32q0 -7 -6 -15q-201 -280 -277 -850q-4 -33 -8 -38q-2 -3 -10 -3q-2 0 -32 5q-55 9 -60 35q-3 15 -3 29q0 18 3.5 38t10.5 46.5t9 35.5q2 10 5.5 30.5t5.5 28.5
q17 91 67 264q8 28 8 30t-2 2q-3 0 -12 -6zM384 737l61 24q74 30 89 43q6 6 20 6q21 0 35 -14q13 -13 13 -36q0 -15 -5 -25q-10 -17 -80 -38l-99 -30q-13 -4 -26 -4q-14 0 -22 5q-9 6 -19.5 18.5t-10.5 19.5q0 10 6 17t15 7q4 0 23 7z" />
    <glyph glyph-name="uni0008" horiz-adv-x="436" 
d="M152 114q4 0 12 5q38 25 64 56q5 6 16.5 17.5t19.5 21.5q6 7 25.5 28t32 36.5t32 50t35.5 77.5q11 34 36 34q6 0 18 -4.5t22 -5.5q25 -2 34 -17q7 -11 7 -21q0 -22 -19 -50q-17 -24 -24 -35q-32 -51 -59 -126q-5 -15 -28.5 -79.5t-25.5 -68.5q-8 -23 -8 -26q0 -4 6 -5
q22 -6 22 -22q0 -11 -8 -22q-83 -111 -117 -276q0 -2 -3 -18t-4.5 -22t-5.5 -20.5t-8.5 -21.5t-11 -16t-15.5 -13.5t-20 -5.5q-27 -3 -35 -3q-18 0 -32 9q-18 12 -18 41q0 30 19 73q41 93 84 168q6 30 62 207q5 17 5 18q0 4 -3 4t-26 -18q-45 -36 -64 -36q-71 0 -111 46
q-9 10 -9 35q0 63 39 174q4 11 29 74.5t35 99.5q3 12 15.5 22.5t27.5 10.5q7 0 12 -1q37 -6 46 -13q14 -9 14 -28q0 -16 -11 -36q-3 -6 -12.5 -18t-12.5 -19q-15 -33 -25.5 -62t-23.5 -73.5t-20 -64.5q-13 -41 -13 -57q0 -4 3 -4zM312 573l61 24q74 30 89 43q6 6 20 6
q21 0 35 -14q13 -13 13 -36q0 -15 -5 -25q-10 -17 -80 -38l-99 -30q-13 -4 -26 -4q-14 0 -22 5q-9 6 -19.5 18.5t-10.5 19.5q0 10 6 17t15 7q4 0 23 7z" />
    <glyph glyph-name="uni000B" horiz-adv-x="500" 
d="M390 576q58 18 101 18q32 0 48.5 -3.5t33.5 -18.5q30 -26 30 -94q0 -21 -17.5 -60.5t-34.5 -67.5q-37 -60 -77 -103.5t-108 -97.5q-11 -8 -41.5 -14.5t-59.5 -6.5q-36 0 -57 11q-6 3 -9 3q-2 0 -7 -16q-3 -9 -9.5 -31.5t-8.5 -31.5q-14 -58 -14 -64q0 -11 -10 -18
q-14 -10 -33 -10q-25 0 -32 10q-3 4 -15.5 9.5t-19.5 14.5q-5 6 -5 12q0 4 5 23.5t15.5 54t23.5 68.5q18 46 18 60q0 3 -8 11q-13 12 -13 22q0 8 7 12q6 2 16.5 14t22.5 16q7 2 10 11q3 10 10.5 29.5t9.5 26.5q3 7 3 10t-5 5q-7 3 -15 12.5t-9 13.5q0 2 -2.5 6.5t-2.5 6.5
q0 15 24 36q18 15 47 29q10 5 15 17q49 124 69 162q9 18 34 18q12 0 21 -4.5t13 -4.5q40 -4 40 -30q0 -12 -9 -32q-4 -8 -4 -12q0 -9 -9 -20q-4 -5 -4 -6q0 -2 2 -2zM446 504q-79 -24 -129 -59q-7 -5 -12 -16q-48 -109 -67 -163q-6 -16 -6 -21q0 -4 15 -19q16 -16 24 -16
q5 0 10 3q3 2 10.5 7.5t12.5 9.5q73 57 136 151q23 34 37 64.5t16.5 42t2.5 16.5q0 6 -10 6q-20 0 -40 -6z" />
    <glyph glyph-name="uni000C" horiz-adv-x="456" 
d="M263 380q58 58 94 76q16 8 30 8q32 0 87 -38q21 -14 21 -50q0 -27 -9 -56q-1 -3 -2.5 -15.5t-5.5 -22.5q-81 -207 -163 -274q-11 -9 -30 -9q-28 0 -60 17q-32 18 -58 58q-8 12 -10 12q-3 0 -17 -27q-35 -67 -111 -283q-1 -3 -3 -18.5t-8.5 -22.5t-21.5 -7q-4 0 -13 1.5
t-13 1.5q-30 0 -40 13q-2 3 -6 7t-5.5 6t-3 5.5t-1.5 7.5q0 6 6 24q15 45 122 312.5t173 489.5q12 40 12 59q0 9 5 13t18.5 7t19.5 5q13 5 25 5q17 0 31 -8.5t14 -22.5q0 -21 -45 -156q-30 -87 -41 -113q-3 -7 -3 -10t2 -3t10 8zM257 86q3 0 11 9q61 76 104 228q8 29 8 32
t-2 3q-5 0 -20 -12q-77 -62 -127 -146q-4 -7 -4 -26q0 -43 18 -76q7 -12 12 -12z" />
    <glyph glyph-name="uni000E" horiz-adv-x="560" 
d="M540 365q56 -8 81 -39q6 -8 6 -19q0 -27 -24 -27q-2 0 -6.5 1t-16 1.5t-29.5 0.5q-34 0 -70.5 -6t-78 -15.5t-65.5 -13.5q-22 -19 -70.5 -52.5t-81 -62.5t-48.5 -61q-4 -8 -4 -16q0 -4 11.5 -9.5t23.5 -5.5q9 0 27.5 -4.5t28.5 -4.5q28 0 63 7.5t59.5 15.5t62 21.5
t51.5 18.5q15 5 30 5q41 0 49 -16q2 -4 17.5 -24.5t15.5 -29.5q0 -13 -17 -13q-4 0 -8 1.5t-7 1.5q-1 0 -1.5 -0.5l-1.5 -1.5t-5.5 -4t-12.5 -6q-136 -57 -257 -57q-118 0 -209 58q-10 6 -28 33.5t-18 41.5q0 21 6 32q21 37 114 114q13 10 13 13q0 1 -16 7q-20 7 -26 15
q-10 13 -10 23q0 4 1.5 12t1.5 12q0 11 8.5 19.5t25.5 8.5q10 0 42 -9t37 -9q12 0 38.5 4t31.5 7q204 127 263 215q5 8 5 13q0 6 -34 11t-63 5q-103 0 -129 -52q-5 -10 -28 -10q-49 0 -67 34q-13 26 -13 45q0 8 6 12q81 53 207 53q107 0 189 -47q10 -6 33.5 -29t23.5 -35
q0 -27 -8.5 -42.5t-40.5 -47.5q-1 -1 -12 -13t-26 -26.5t-40 -34.5q-15 -12 -15 -15q0 -2 15 -4zM452 879q1 0 8.5 1t10.5 1q22 0 25 -13q1 -10 34 -60q6 -9 11 -9q8 0 32 13l63 33q14 7 23 7q11 0 18.5 -7t7.5 -19q0 -4 0.5 -10t0.5 -9q0 -17 -24 -32l-110 -68
q-5 -3 -9.5 -4.5t-5.5 -1.5q-6 -3 -12 -3q-21 0 -34 17l-48 69q-22 32 -22 53q0 18 18 36q6 6 13 6z" />
    <glyph glyph-name="uni000F" horiz-adv-x="384" 
d="M377 307q0 -3 14 -5q44 -7 62 -29q10 -11 10 -20q0 -18 -31 -18q-71 0 -161 -28q-22 -7 -31 -13t-35 -34q-63 -68 -67 -72q-11 -11 -11 -20q0 -8 7 -11q11 -5 20 -5q7 0 24 5q21 7 38 7q16 0 55 19t63 19q29 0 56 -23q11 -9 11 -19q0 -13 -15 -19q-3 -1 -34 -14
t-44 -17.5t-40 -13t-50.5 -12t-46.5 -3.5q-62 0 -114 30q-35 20 -35 66q0 18 4 26q4 10 11.5 20.5t12.5 16.5t17 19t15 17q14 16 14 17q0 2 -6 4q-27 9 -35 26q-12 24 -12 34t10 17t26 7q13 0 34 -7t36 -7q25 0 48.5 17t45.5 40t36 30q13 7 23.5 16.5t15 15.5t4.5 8
q0 3 -3 3t-12 -3q-15 -5 -29 -7q-50 -6 -86 -47q-5 -5 -12 -5q-21 0 -38 18.5t-17 43.5q0 29 24 35q6 2 44.5 12.5t65 15t51.5 4.5q31 0 61.5 -9t40.5 -20q2 -3 13.5 -13t13.5 -17q4 -11 4 -21q0 -14 -9.5 -27.5t-19 -21t-29.5 -21.5q-8 -5 -8 -7zM300 685q1 0 8.5 1t10.5 1
q22 0 25 -13q1 -10 34 -60q6 -9 11 -9q8 0 32 13l63 33q14 7 23 7q11 0 18.5 -7t7.5 -19q0 -4 0.5 -10t0.5 -9q0 -17 -24 -32l-110 -68q-5 -3 -9.5 -4.5t-5.5 -1.5q-6 -3 -12 -3q-21 0 -34 17l-48 69q-22 32 -22 53q0 18 18 36q6 6 13 6z" />
    <glyph glyph-name="uni0015" horiz-adv-x="950" 
d="M795 620q0 -15 -4 -22t-12 -10.5t-10 -6.5q-4 -5 -17.5 -15.5t-17.5 -16.5q-52 -68 -102 -145t-111 -178.5t-100 -161.5q-62 -96 -84 -96q-44 0 -61 25q-6 9 -6 26q0 27 16 33q11 5 47 60l298 460q30 46 62 76q26 25 49 25q18 0 41 -17q12 -10 12 -36zM308 421q2 8 2 9
q0 2 -2 2q-1 0 -10 -10q-26 -32 -47.5 -56t-32.5 -36t-19 -19.5t-11.5 -10.5t-5.5 -6q-5 -9 -27 -9q-21 0 -32 11q-2 2 -8.5 5.5t-8.5 6.5q-12 15 -12 20q0 6 14 20q11 11 37.5 31t35.5 30q45 51 135 156q23 27 52 77q5 8 24 8q23 0 45.5 -12t22.5 -28q0 -4 -4 -14
q-15 -39 -29.5 -86t-23 -81.5t-22 -90.5t-21.5 -86q-3 -10 -4.5 -31t-5.5 -31q-7 -18 -44 -18q-31 0 -50 17q-6 6 -6 17t4 27q2 10 7 22.5t7 18.5q6 22 19.5 71t20.5 76zM821 388q0 5 -4 5q-5 0 -13 -4q-21 -11 -49 -49q-1 -2 -9 -9.5t-10 -12.5q-8 -17 -24 -17q-3 0 -9 -1
t-9 -1q-29 0 -41.5 16t-12.5 32q0 6 3 12t8.5 13t7.5 11q15 25 65 52q31 16 44.5 19.5t48.5 3.5q32 0 62.5 -26.5t30.5 -44.5q0 -89 -94 -189q-10 -11 -56 -56.5t-67 -67.5q-14 -14 -14 -18t28 -4q41 0 55.5 7t23.5 28l3 7q3 8 4 9.5t5.5 7t8.5 7t11.5 3.5t16.5 2
q28 0 45 -20q6 -7 6 -21q0 -18 -8.5 -41t-16.5 -33q-20 -24 -133 -24q-114 0 -138 20q-31 26 -31 51q0 11 24 37q21 24 76.5 79.5t82.5 86.5q79 91 79 130z" />
    <glyph glyph-name="uni0016" horiz-adv-x="950" 
d="M806 620q0 -15 -4 -22t-12 -10.5t-10 -6.5q-4 -5 -17.5 -15.5t-17.5 -16.5q-52 -68 -102 -145t-111 -178.5t-100 -161.5q-62 -96 -84 -96q-44 0 -61 25q-6 9 -6 26q0 27 16 33q11 5 47 60l298 460q30 46 62 76q26 25 49 25q18 0 41 -17q12 -10 12 -36zM308 421q2 8 2 9
q0 2 -2 2q-1 0 -10 -10q-26 -32 -47.5 -56t-32.5 -36t-19 -19.5t-11.5 -10.5t-5.5 -6q-5 -9 -27 -9q-21 0 -32 11q-2 2 -8.5 5.5t-8.5 6.5q-12 15 -12 20q0 6 14 20q11 11 37.5 31t35.5 30q45 51 135 156q23 27 52 77q5 8 24 8q23 0 45.5 -12t22.5 -28q0 -4 -4 -14
q-15 -39 -29.5 -86t-23 -81.5t-22 -90.5t-21.5 -86q-3 -10 -4.5 -31t-5.5 -31q-7 -18 -44 -18q-31 0 -50 17q-6 6 -6 17t4 27q2 10 7 22.5t7 18.5q6 22 19.5 71t20.5 76zM703 92q-56 0 -94 16q-17 7 -31.5 30t-14.5 30q0 16 9 26q6 7 41 47t52.5 59.5t49.5 51.5t61 57
q11 9 14 14q13 19 34 19q12 0 25 -5q36 -14 36 -35q0 -8 -5.5 -23t-5.5 -21q0 -16 -6 -37q-23 -76 -32 -109q-8 -28 -8 -32t4 -4l9 1q9 1 16 1q34 0 48 -15q15 -17 15 -33q0 -14 -22 -16q-53 -6 -73 -10q-11 -2 -14 -14q-5 -18 -9 -52.5t-5 -40.5q-3 -18 -19 -18
q-28 0 -61 22q-13 9 -13 24q0 7 5 35l5 27q0 5 -11 5zM754 246q10 30 10 36q0 3 -2 3t-22 -25q-66 -84 -67 -85q-10 -12 -10 -14q0 -4 19 -4q29 0 41 2q8 2 9 8q5 29 22 79z" />
    <glyph glyph-name="uni0017" horiz-adv-x="364" 
d="M308 421q2 8 2 9q0 2 -2 2q-1 0 -10 -10q-26 -32 -47.5 -56t-32.5 -36t-19 -19.5t-11.5 -10.5t-5.5 -6q-5 -9 -27 -9q-21 0 -32 11q-2 2 -8.5 5.5t-8.5 6.5q-12 15 -12 20q0 6 14 20q11 11 37.5 31t35.5 30q45 51 135 156q23 27 52 77q5 8 24 8q23 0 45.5 -12t22.5 -28
q0 -4 -4 -14q-15 -39 -29.5 -86t-23 -81.5t-22 -90.5t-21.5 -86q-3 -10 -4.5 -31t-5.5 -31q-7 -18 -44 -18q-31 0 -50 17q-6 6 -6 17t4 27q2 10 7 22.5t7 18.5q6 22 19.5 71t20.5 76z" />
    <glyph glyph-name="uni0018" horiz-adv-x="950" 
d="M806 620q0 -15 -4 -22t-12 -10.5t-10 -6.5q-4 -5 -17.5 -15.5t-17.5 -16.5q-52 -68 -102 -145t-111 -178.5t-100 -161.5q-62 -96 -84 -96q-44 0 -61 25q-6 9 -6 26q0 27 16 33q11 5 47 60l298 460q30 46 62 76q26 25 49 25q18 0 41 -17q12 -10 12 -36zM335 553q4 7 4 12
q0 4 -4 4q-2 0 -10 -4q-18 -9 -30 -19.5t-12 -15.5q0 -7 -3 -10.5t-8 -6.5t-8 -7q-6 -8 -31 -8q-23 0 -33 10q-6 6 -12 17t-6 16q0 10 4.5 18.5t9.5 13.5t15.5 13.5t15.5 13.5q3 3 14.5 6t13.5 4q53 33 93 33q15 0 23.5 -2t14 -5.5t7.5 -4.5l13 -4q12 -4 18 -9t11 -15t5 -18
q0 -16 -5 -26q-2 -3 -4.5 -11.5t-5.5 -12.5q-27 -43 -60 -71q-10 -9 -10 -12t9 -6q52 -20 52 -80q0 -39 -25 -92q-23 -48 -53.5 -77.5t-82.5 -29.5q-68 0 -143 87q-12 14 -12 26q0 20 29 20q5 0 15 1t16 1q19 0 30 -12q3 -4 10.5 -10.5t11 -12t3.5 -11.5q0 -3 10.5 -11.5
t17.5 -8.5q10 0 29.5 20t34.5 56q18 43 18 63q0 17 -8 17q-7 0 -11 -2t-10.5 -4t-10.5 -4q-42 -25 -66 -25q-25 0 -38 12t-13 28q0 7 4 11q11 9 30 20q6 3 15 10.5t14 10.5q70 48 104 104zM703 92q-56 0 -94 16q-17 7 -31.5 30t-14.5 30q0 16 9 26q6 7 41 47t52.5 59.5
t49.5 51.5t61 57q11 9 14 14q13 19 34 19q12 0 25 -5q36 -14 36 -35q0 -8 -5.5 -23t-5.5 -21q0 -16 -6 -37q-23 -76 -32 -109q-8 -28 -8 -32t4 -4l9 1q9 1 16 1q34 0 48 -15q15 -17 15 -33q0 -14 -22 -16q-53 -6 -73 -10q-11 -2 -14 -14q-5 -18 -9 -52.5t-5 -40.5
q-3 -18 -19 -18q-28 0 -61 22q-13 9 -13 24q0 7 5 35l5 27q0 5 -11 5zM754 246q10 30 10 36q0 3 -2 3t-22 -25q-66 -84 -67 -85q-10 -12 -10 -14q0 -4 19 -4q29 0 41 2q8 2 9 8q5 29 22 79z" />
    <glyph glyph-name="uni0019" horiz-adv-x="364" 
d="M335 553q4 7 4 12q0 4 -4 4q-2 0 -10 -4q-18 -9 -30 -19.5t-12 -15.5q0 -7 -3 -10.5t-8 -6.5t-8 -7q-6 -8 -31 -8q-23 0 -33 10q-6 6 -12 17t-6 16q0 10 4.5 18.5t9.5 13.5t15.5 13.5t15.5 13.5q3 3 14.5 6t13.5 4q53 33 93 33q15 0 23.5 -2t14 -5.5t7.5 -4.5l13 -4
q12 -4 18 -9t11 -15t5 -18q0 -16 -5 -26q-2 -3 -4.5 -11.5t-5.5 -12.5q-27 -43 -60 -71q-10 -9 -10 -12t9 -6q52 -20 52 -80q0 -39 -25 -92q-23 -48 -53.5 -77.5t-82.5 -29.5q-68 0 -143 87q-12 14 -12 26q0 20 29 20q5 0 15 1t16 1q19 0 30 -12q3 -4 10.5 -10.5t11 -12
t3.5 -11.5q0 -3 10.5 -11.5t17.5 -8.5q10 0 29.5 20t34.5 56q18 43 18 63q0 17 -8 17q-7 0 -11 -2t-10.5 -4t-10.5 -4q-42 -25 -66 -25q-25 0 -38 12t-13 28q0 7 4 11q11 9 30 20q6 3 15 10.5t14 10.5q70 48 104 104z" />
    <glyph glyph-name="uni001A" horiz-adv-x="364" 
d="M352 581q0 5 -4 5q-5 0 -13 -4q-21 -10 -49 -49q-1 -2 -9 -9.5t-10 -12.5q-8 -17 -24 -17q-3 0 -9 -1t-9 -1q-29 0 -41.5 16t-12.5 32q0 6 3 12t8.5 13t7.5 11q15 25 65 52q31 16 44.5 19.5t48.5 3.5q32 0 62.5 -26.5t30.5 -44.5q0 -89 -94 -189q-10 -11 -56 -56.5
t-67 -67.5q-14 -14 -14 -18t28 -4q41 0 55.5 7t23.5 28l3 8q3 7 4 8.5t5.5 7t8.5 7t11.5 3.5t16.5 2q28 0 45 -20q6 -8 6 -21q0 -18 -8.5 -41t-16.5 -33q-20 -24 -133 -24q-114 0 -138 20q-31 26 -31 51q0 11 24 37q21 24 76.5 79.5t82.5 86.5q79 91 79 130z" />
    <glyph glyph-name="uni001B" horiz-adv-x="292" 
d="M186 424q16 48 21 62l51 146q19 55 38 88q6 11 26 11q12 0 25 -5t16 -6q39 -9 39 -37q0 -7 -3 -19t-3 -16q0 -7 -9 -19q-23 -30 -44 -83q-4 -9 -59 -164q-14 -43 -22 -47q-4 -2 -14 -2q-12 0 -24.5 6t-16.5 13q-8 16 -19 23t-11 13q0 7 9 36zM212 102q-17 -20 -27 -47
l-91 -238q-7 -17 -24 -17q-15 0 -22.5 4t-10 10t-4.5 7q-28 15 -28 36q0 4 10 34q6 17 8 30.5t4 18.5l70 208q10 31 20.5 45t27.5 14q8 0 12.5 -0.5t7.5 -1.5t5 -1.5t6.5 -2t11.5 -2.5q41 -6 41 -45q0 -32 -17 -52z" />
    <glyph glyph-name="uni001C" horiz-adv-x="590" 
d="M561 294q0 -35 -8 -52q-5 -11 -42 -11q-1 0 -93 -3.5t-151 -3.5q-107 0 -127 10q-28 14 -28 69q0 19 40 19q5 0 26 -2t56 -3.5t74 -1.5q31 0 72 2t62 2q9 0 29 2.5t31 2.5q39 0 55 -20q4 -5 4 -10z" />
    <glyph glyph-name="uni001D" horiz-adv-x="590" 
d="M348 348q16 13 39 31t37 28.5t30 25t28 27.5q8 9 28 9q8 0 24.5 -2.5t19.5 -2.5q14 0 30 -17q9 -11 9 -20q0 -6 -3 -10q-6 -8 -13 -14.5t-15.5 -13.5t-15 -11.5t-19.5 -13t-20 -13.5q-30 -21 -131 -107q-8 -7 -8 -11q0 -3 3 -11q39 -95 72 -140q17 -23 17 -29
q0 -11 -11 -19q-19 -14 -33 -14q-9 0 -22.5 4.5t-16.5 4.5q-18 1 -26 14q-29 43 -51 97q-12 30 -15 30t-34 -28q-57 -50 -74 -87q-10 -22 -30 -22q-3 0 -8 1.5t-17 1.5q-10 0 -15.5 3t-11.5 11t-8 10q-18 18 -18 23q0 28 45 68q112 98 124 110q10 10 10 16q0 3 -2 9
q-5 15 -20.5 66.5t-21.5 66.5q-10 24 -10 33q0 30 48 30q20 0 29.5 -3t15 -8.5t8.5 -7.5q14 -6 14 -23q0 -19 20 -88q4 -12 6 -12q3 0 13 8z" />
    <glyph glyph-name="space" unicode=" " horiz-adv-x="246" 
 />
    <glyph glyph-name="exclam" unicode="!" horiz-adv-x="320" 
d="M350 624q30 -12 30 -39q0 -17 -14.5 -48.5t-15.5 -36.5q-4 -14 -22 -76t-25 -85.5t-22.5 -67.5t-30.5 -79q-7 -17 -24 -17q-7 0 -19 5q-14 7 -16 17q-2 12 -14.5 23.5t-12.5 21.5q0 3 4 17q3 10 5.5 23t3.5 19q8 33 23 84.5t26 95t17 86.5q12 83 50 83q9 0 18.5 -5
t10.5 -5q10 -3 17.5 -9t10.5 -7zM200 94q29 -3 29 -30q0 -12 -8 -36q-14 -39 -39 -39q-6 0 -16.5 -0.5t-14.5 -0.5q-23 0 -35 13q-20 23 -20 52q0 18 9 35l3 10q3 10 8.5 13.5t17.5 3.5q17 0 35.5 -10t30.5 -11z" />
    <glyph glyph-name="quotedbl" unicode="&#x22;" horiz-adv-x="356" 
d="M157 435l35 139q9 34 13 81q3 24 28 24q12 0 27.5 -7t18.5 -8q36 -8 36 -37q0 -6 -4 -21t-10.5 -39t-10.5 -41l-31 -133q-7 -24 -38 -24q-5 0 -19 3.5t-16 3.5q-12 0 -24 12.5t-12 19.5q0 4 1 8t3 9.5t3 9.5zM319 460l23 95q20 83 20 93q0 23 36 23q33 0 47 -18
q3 -4 10.5 -11t10 -12t2.5 -13q0 -15 -5 -34.5t-12 -39t-8 -25.5l-35 -139q-5 -20 -34 -20q-17 0 -37 7q-14 5 -22.5 16t-8.5 19q0 7 13 59z" />
    <glyph glyph-name="numbersign" unicode="#" horiz-adv-x="650" 
d="M503 260h39q84 0 86 -15q0 -3 6 -8.5t6 -12.5q0 -6 -4 -15t-5 -12q-4 -22 -26 -22q-13 0 -41 1.5t-41 1.5q-43 0 -51 -2q-4 -1 -9 -14q-13 -35 -32.5 -77.5t-25.5 -56.5q-25 -59 -36 -66q-5 -3 -15 -3q-31 0 -42 11q-1 1 -5.5 4.5t-8 6.5t-6.5 8.5t-3 11.5t8 28
q3 10 10.5 20.5t8.5 14.5l38 98q0 7 -5 7q-24 0 -52 -3q-10 -1 -14 -12q-42 -109 -69 -162q-11 -22 -17 -27.5t-14 -5.5q-4 0 -14 2.5t-17 3.5q-38 4 -38 31q0 11 7.5 30.5t19.5 44t15 32.5l22 57q0 6 -6 6q-1 0 -33.5 -2.5t-46.5 -2.5q-33 0 -33 26q0 3 1.5 7.5t1.5 5.5
q0 4 -0.5 10t-0.5 8q0 4 3.5 10.5t13 14t22.5 7.5h90q23 0 28 12l29 67q0 6 -5 6h-67q-34 0 -43 5q-14 8 -14 19q0 8 5 20.5t5 15.5q0 29 49 29q11 0 44 -2t34 -2q19 0 24 2.5t10 16.5l53 135q0 1 4.5 13t7.5 18t8.5 16t12.5 16t16 8q8 2 15 2q8 0 16.5 -3t9.5 -3
q22 0 31.5 -13.5t9.5 -30.5q0 -5 -5 -13q-5 -9 -13.5 -20.5t-11.5 -17.5q-13 -24 -53 -118q0 -4 4 -4q56 0 61 3q4 4 9 17l53 130q5 11 15.5 29.5t11.5 30.5q1 13 28 13q29 0 54 -16q23 -15 23 -28q0 -10 -6 -19q-31 -49 -32 -51q-35 -70 -44 -99q0 -4 4 -4q1 0 13 1
t29.5 1.5t31.5 0.5q29 0 36 -1.5t11 -10.5q8 -18 8 -27q0 -10 -7.5 -15.5t-9.5 -10.5q-5 -15 -14 -18t-44 -3q-87 0 -91 -4q-3 -3 -6 -9q-12 -25 -29 -70q0 -4 4 -4zM326 253q1 0 10 0.5t21.5 1.5t21.5 1t11.5 2.5t6.5 12.5q3 6 11.5 28t13.5 35q0 6 -6 6q-47 0 -58 -3
q-5 -1 -9 -12l-26 -69q0 -3 3 -3z" />
    <glyph glyph-name="dollar" unicode="$" horiz-adv-x="462" 
d="M399 513q-15 -50 -35 -106q-12 -34 -12 -43q0 -7 7 -22l25 -56q1 -1 6 -12.5t9.5 -21.5t11.5 -26t12 -31t10 -31.5t7.5 -33t2.5 -30.5q0 -70 -63 -107q-19 -11 -67 -11q-19 0 -35.5 2t-25.5 3.5t-10 1.5q-4 0 -5 -18q-2 -20 -3.5 -30t-12 -22.5t-29.5 -12.5q-5 0 -25 4
q-5 1 -10.5 1.5t-8.5 1t-6 2t-4 4.5q-5 11 -5 25q0 27 14 59q4 9 4 14q0 3 -8 8q-38 22 -73 62q-5 6 -16.5 17t-19.5 21q-23 29 -23 66q0 23 13 36q4 4 7 5t6 1.5t4 0.5q14 3 25 3q9 0 17.5 -2.5t15.5 -5.5l7 -3q20 -5 31.5 -16.5t11.5 -24.5q0 -3 -2 -10t-2 -12
q0 -27 26 -48q7 -6 10 -6q2 0 5 10q8 28 28 88.5t29 92.5q3 10 3 15q0 10 -12 35q-2 5 -11.5 24.5t-12.5 27t-10.5 24t-10.5 26.5t-7.5 24t-6 26t-1.5 23q0 44 15 68t45 47q28 22 72 22q20 0 35.5 -2.5t16.5 -2.5q4 0 7 8q14 39 14 47q0 24 46 24q20 0 36 -7t16 -19
q0 -7 -4.5 -19t-4.5 -18q0 -7 -17 -34q-9 -13 -9 -16q0 -2 14 -11q30 -20 58 -49t28 -45q0 -7 -2 -11.5t-6 -7.5l-3 -3q-3 -5 -14.5 -12t-12.5 -8q-4 -4 -13 -4q-3 0 -15 3q-1 0 -4.5 1.5t-10.5 2.5q-8 1 -13.5 5t-13.5 13t-10 11q-5 5 -13 18q-2 3 -4 3q-3 0 -8 -16z
M300 479q3 12 13.5 41.5t12.5 34.5q7 20 7 22q0 3 -5 6q-7 4 -17 4q-32 0 -32 -58q0 -17 11 -48q4 -11 6 -11t4 9zM293 180q-26 -86 -30 -98t-4 -16q0 -8 29 -8q41 0 41 33q0 45 -15 89q-7 21 -12 21q-3 0 -9 -21z" />
    <glyph glyph-name="percent" unicode="%" horiz-adv-x="780" 
d="M456 548q-5 0 -5 -6q0 -99 -64 -177q-44 -54 -98 -54q-71 0 -120 65q-28 37 -28 78t39 115q50 94 136 94q35 0 56 -17q9 -8 18 -10q61 -15 84 -15q103 0 123 26q11 14 25 14q34 0 50 -12q21 -15 21 -39q0 -23 -19 -40q-23 -20 -49 -60l-275 -435q-14 -22 -34 -52t-23 -34
q-10 -16 -39 -16q-28 0 -48 16q-13 11 -13 35q0 26 13 31q10 4 17 16q13 20 21 24q7 4 29 39q28 44 104 168t129 206q19 28 19 32t-5 4q-1 0 -8 -0.5t-10 -0.5q-14 0 -46 5zM703 297q49 -29 49 -85q0 -86 -56 -172q-34 -53 -111 -53q-70 0 -106 36q-12 12 -25 36.5t-13 41.5
q0 65 41 135q31 51 56 71.5t68 20.5q44 0 97 -31zM344 569q-17 7 -17 22q0 2 -2 2q-5 0 -15 -13q-67 -89 -67 -153q0 -20 8 -36q6 -12 18 -12t28 26q55 93 55 137q0 24 -8 27zM644 244q-9 4 -14 13q-2 5 -5 5q-4 0 -14 -14q-66 -95 -66 -159q0 -19 5.5 -31.5t11.5 -12.5
q27 0 58 71.5t31 106.5q0 17 -7 21z" />
    <glyph glyph-name="ampersand" unicode="&#x26;" horiz-adv-x="528" 
d="M420 199q40 36 67 36q15 0 22 -5q14 -9 14 -45q0 -23 -6.5 -34.5t-23.5 -21.5q-6 -4 -18 -13t-34 -23q-10 -6 -10 -12q0 -3 2 -8q2 -4 8.5 -22.5t11.5 -30.5q6 -14 6 -23q0 -13 -15 -13q-10 0 -15 2t-8 2q-1 0 -7 -1.5t-9 -1.5q-16 0 -33.5 9t-19.5 19q-1 7 -5 14
q-4 8 -7 8t-26 -9.5t-34 -12.5q-56 -14 -95 -14q-28 0 -53 8q-17 5 -27.5 15t-19 23t-13.5 18q-18 17 -18 51q0 21 9 40q12 26 30 51t28.5 36t37.5 39q4 4 12 11.5t22.5 20.5t29.5 27q12 12 12 20q0 6 -2 14q-9 39 -9 82q0 38 5 56q6 26 16 43q41 75 120 75q29 0 54 -11
q8 -4 11.5 -7t7.5 -7.5t9 -8.5q33 -27 33 -64q0 -25 -16 -67q-11 -30 -107 -126q-7 -7 -7 -12q0 -4 3 -15q7 -25 21 -67.5t16 -48.5q4 -13 8 -13t22 17zM248 230q-19 -19 -54 -67q-31 -40 -31 -66q0 -14 17 -14q40 0 119 35q9 4 9 7q0 5 -4 17l-32 95q-3 8 -5 8
q-4 0 -19 -15zM342 453q15 18 23 33.5t11 25.5t4 12q7 14 7 25q0 10 -5 10t-16 -6t-18 -18q-17 -28 -23 -44t-6 -41q0 -18 3 -18t20 21z" />
    <glyph glyph-name="quotesingle" unicode="'" horiz-adv-x="232" 
d="M171 446l31 129q8 36 12 81q3 24 29 24q14 0 23.5 -4t15.5 -9t9 -6q35 -10 35 -39q0 -12 -3 -22t-9.5 -30t-12.5 -46l-27 -125q-7 -31 -41 -31q-10 0 -22 4t-15 4q-12 0 -24 14t-12 21q0 6 5 18t6 17z" />
    <glyph glyph-name="parenleft" unicode="(" horiz-adv-x="330" 
d="M151 -83q-25 4 -38.5 42t-15 61.5t-1.5 43.5q0 108 24 205q21 86 76 203t141 220q5 6 18 14.5t18 13.5q13 13 32 13t36 -14t17 -43q0 -31 -13 -61q-9 -20 -35 -20q-11 0 -16 -3t-14 -15q-74 -92 -133 -233q-54 -130 -54 -261q0 -49 3 -62q3 -11 16 -32.5t13 -47.5
q0 -13 -9.5 -24.5t-32.5 -11.5q-10 0 -20 6t-12 6z" />
    <glyph glyph-name="parenright" unicode=")" horiz-adv-x="330" 
d="M259 494q0 104 -8 133q-2 9 -13.5 28.5t-11.5 32.5q0 23 15 25q1 0 15.5 9.5t28.5 9.5q32 0 57 -29q11 -13 18 -72q6 -49 6 -103q0 -250 -116 -431q-67 -106 -160 -177q-16 -12 -36 -12q-15 0 -25.5 5.5t-14 11t-8.5 16.5t-6 14q-8 14 -8 20t5 10t13.5 8.5t13.5 9.5
q32 32 47 32q5 0 19 14q31 31 50 57.5t49 83.5q70 131 70 304z" />
    <glyph glyph-name="asterisk" unicode="*" horiz-adv-x="414" 
d="M481 546q17 0 26 -3q8 -2 12.5 -6.5t5.5 -7t2 -8.5t2 -8q1 -3 1 -7q0 -1 -9 -22q-6 -14 -15.5 -17t-37.5 -3q-9 0 -65 -9q-12 -2 -12 -4q0 -3 6 -11q2 -3 12 -22.5t20 -30.5q13 -14 13 -24q0 -13 -9 -21q-1 -1 -6 -5.5t-9 -8t-10.5 -6.5t-13.5 -3q-19 0 -30 15
q-21 27 -35 54q-8 15 -10 15t-12 -17q-12 -20 -17 -34q-5 -12 -25 -24q-11 -6 -26 -6q-20 0 -37.5 9.5t-17.5 23.5q0 5 7 15q42 63 47 70q9 12 9 14t-3 2q-48 0 -73 4q-19 3 -27.5 9.5t-8.5 20.5q0 6 2.5 17t2.5 15t8 12q11 11 25 11q6 0 8 -0.5t4 -1.5t6 -2q18 -3 39 -3
q5 0 12 -0.5t12 -1.5h5q3 0 3 3t-8 23q-5 12 -10.5 24.5t-8 18t-4.5 12t-2 11.5q0 12 8 18t16.5 13t12 9.5t8 4t10.5 1.5q22 0 30 -15q7 -13 18 -55q5 -17 7 -17t11 11q4 6 13 16.5t11 13.5q1 1 5 7t6.5 9.5t7.5 8t11 7t13 2.5q34 0 48 -6q25 -10 25 -20q0 -11 -11 -26
q-6 -8 -17 -19l-13 -13q-30 -34 -30 -37q0 -2 2 -2q1 0 22.5 3.5t37.5 3.5z" />
    <glyph glyph-name="plus" unicode="+" horiz-adv-x="590" 
d="M392 315q0 -3 4 -3q18 0 54.5 4.5t55.5 4.5q27 0 43 -11t16 -24q0 -6 -2.5 -14t-6.5 -16l-5 -10q-5 -13 -17 -13q-2 0 -8 1t-8 1q-9 0 -26 -2q-24 -3 -64.5 -6t-55.5 -5q-12 -1 -14 -8q-15 -44 -32 -142q-3 -14 -5 -19.5t-10 -10.5t-24 -5q-3 0 -9.5 -2.5t-10.5 -2.5
q-16 0 -27 5t-14.5 10t-3.5 8q0 23 4 42.5t11.5 45t11.5 43.5q4 19 4 21q0 5 -5 5q-94 0 -118 11q-26 12 -26 65q0 7 10 15q12 9 25 9q8 0 21 -3q30 -5 84 -5q27 0 33 2q5 1 7 8q21 61 28 90q12 53 26 57q5 1 14.5 5t18 6.5t17.5 2.5q12 0 28.5 -5.5t16.5 -17.5q0 -6 -9 -33
l-13 -41q-19 -57 -19 -63z" />
    <glyph glyph-name="comma" unicode="," horiz-adv-x="260" 
d="M-18 -102l64 109q2 3 12 22t22.5 43t17.5 33q14 25 37 25q34 0 52 -28q3 -4 9.5 -11.5t10 -13.5t3.5 -11q0 -7 -4 -12l-128 -194q-15 -23 -36 -23q-4 0 -17 3.5t-17 3.5q-17 2 -25 12.5t-8 21.5q0 7 7 20z" />
    <glyph glyph-name="hyphen" unicode="-" horiz-adv-x="456" 
d="M445 294q0 -51 -24 -60q-5 -2 -22.5 -4.5t-23.5 -4.5q-11 -3 -49 -3h-24q-35 0 -89.5 3.5t-59.5 3.5q-14 0 -21 7t-16 30q-5 13 -5 24q0 32 44 32q29 0 82 -2t83 -2q5 0 30.5 1.5t43.5 1.5q51 0 51 -27z" />
    <glyph glyph-name="period" unicode="." horiz-adv-x="284" 
d="M221 101q8 -15 8 -31q0 -21 -8.5 -42.5t-20.5 -28.5q-16 -10 -38 -10q-40 0 -71 41q-9 12 -9 24q0 9 9 22.5t11 24.5q6 38 43 38q22 0 44 -10t32 -28z" />
    <glyph glyph-name="slash" unicode="/" horiz-adv-x="400" 
d="M466 695q20 0 42.5 -18.5t22.5 -31.5q0 -18 -13 -32q-4 -4 -22.5 -20.5t-24.5 -25.5q-44 -66 -99 -160.5t-124 -218t-98 -174.5q-53 -92 -74 -92q-28 0 -45 11q-27 18 -27 33q0 11 19 47q2 4 14.5 21t18.5 28l311 538q14 24 33.5 49.5t27.5 31.5q16 14 38 14z" />
    <glyph glyph-name="zero" unicode="0" horiz-adv-x="440" 
d="M174 47q19 0 50.5 29t62.5 84q2 4 12.5 19.5t14.5 25.5q2 5 17 39.5t25.5 62.5t20.5 67t10 68q0 50 -30 70q-1 0 -3.5 1.5t-4.5 1.5q-5 0 -11 -9q-111 -125 -161 -262q-5 -13 -7.5 -23t-3.5 -17t-2 -10q-11 -44 -11 -97q0 -17 5 -30q1 -2 3.5 -6t4 -7t4 -5t4.5 -2z
M361 573q2 0 6 2.5t10 2.5q19 0 47 -14q36 -19 44 -34q24 -48 24 -108q0 -84 -47 -194q0 -1 -5.5 -16.5t-11.5 -30t-23 -45.5t-42 -69q-29 -45 -71 -72.5t-80 -27.5q-31 0 -79 29.5t-67 67.5q-4 6 -9.5 31.5t-5.5 50.5q0 90 54 209q42 92 158 228q10 11 42 11q19 0 30 -5
q5 -2 14.5 -9t11.5 -7z" />
    <glyph glyph-name="one" unicode="1" horiz-adv-x="440" 
d="M263 111q62 240 70 272q0 3 -3 3q-1 0 -10 -10q-74 -91 -123.5 -144.5t-65 -67t-17.5 -16.5q-5 -10 -31 -10q-20 0 -30 10q-3 3 -11.5 8t-11.5 9q-15 16 -15 25q0 7 18 25q21 21 60 49q22 17 44 39q67 73 193 223q34 41 75 110q6 9 26 9q26 0 52 -14t26 -35q0 -7 -3 -13
q-22 -55 -43 -124t-33 -117t-32.5 -133.5t-29.5 -122.5q-10 -30 -10 -60q0 -48 -32 -48q-5 0 -13.5 -1t-13.5 -1q-34 0 -56 19q-6 6 -6 21q0 1 6 37q2 15 10 33t10 25z" />
    <glyph glyph-name="two" unicode="2" horiz-adv-x="440" 
d="M376 565q-51 0 -107 -80q-1 -2 -12 -13t-15 -19q-8 -18 -28 -21q-7 -1 -15 -2.5t-9 -1.5q-26 0 -40 14q-19 19 -19 45q0 9 4.5 18.5t13 19.5t9.5 12q23 33 90 73q33 20 58 25.5t69 5.5q35 0 75 -34t40 -57q0 -125 -133 -268q-15 -16 -74 -74t-94 -95t-35 -45q2 -2 7 -4
q12 -3 57 -3q63 0 85.5 10.5t35.5 42.5q13 31 16 34q15 15 45 15q29 0 49 -23q7 -9 7 -21q0 -25 -13 -61t-22 -47q-16 -19 -55 -25.5t-128 -6.5q-153 0 -182 23q-41 33 -41 68q0 12 34 51q21 23 106 108q233 233 233 319q0 17 -12 17z" />
    <glyph glyph-name="three" unicode="3" horiz-adv-x="440" 
d="M340 543q-29 -15 -55.5 -34.5t-26.5 -29.5q0 -9 -4 -13.5t-11.5 -9t-11.5 -9.5q-7 -9 -36 -9q-23 0 -31 9q-7 7 -15.5 22t-8.5 20q0 18 7.5 30t29.5 29.5t27 22.5q4 4 19.5 8t18.5 6q74 46 126 46q34 0 52 -14q8 -4 13 -5q26 -8 37 -31q6 -10 6 -22q0 -15 -10 -35
q-9 -23 -10 -24q-47 -83 -102 -140q94 -19 94 -119q0 -50 -36 -126q-33 -69 -75 -109.5t-110 -40.5q-87 0 -188 118q-15 17 -15 35q0 23 32 23q14 0 25 1.5t16 1.5q19 0 29 -12q4 -5 14 -14t15 -16t5 -14q0 -9 20 -24.5t37 -15.5q8 0 17 5q50 33 84 108q26 61 26 81t-11 37
q-5 8 -17 8q-7 0 -21 -6q-4 -2 -14 -4t-15 -5q-2 -1 -12 -7t-17 -9.5t-18 -8.5t-22 -7.5t-22 -2.5q-15 0 -27 4q-11 4 -19.5 17.5t-8.5 25.5q0 8 5 13q12 11 42 28q5 3 10 7t7 6.5t4.5 4.5t3.5 3q42 28 77 66.5t49 62.5t31 56q4 10 4 12q0 3 -3 3q-4 0 -10 -3z" />
    <glyph glyph-name="four" unicode="4" horiz-adv-x="440" 
d="M292 431q-70 -80 -151 -179q-4 -5 -4 -8q0 -6 14 -9q15 -3 57 -3q3 0 9 0.5t15.5 1.5t14.5 1q7 1 8.5 3t3.5 8q7 45 42 161q9 31 9 35q0 5 -1 5q-2 0 -17 -16zM238 148q0 5 -7 5q-103 0 -149 21q-20 8 -39.5 38.5t-19.5 40.5q0 21 12 34q7 8 58.5 67t75.5 85.5t70 73
t87 81.5q16 13 21 21q15 23 39 23q14 0 28 -5q39 -15 39 -42q0 -13 -8.5 -35t-8.5 -28q0 -24 -8 -51q-1 -4 -18.5 -62.5t-27.5 -93.5q-14 -54 -14 -63q0 -5 4 -5l10 3q9 2 24 4t30 2q37 0 52 -16q4 -2 10 -15q8 -17 8 -28q0 -7 -4 -11t-13 -6t-17.5 -3t-23 -2t-24.5 -2
q-46 -7 -69 -12q-9 -21 -14 -47t-8 -58t-6 -48q-3 -22 -19 -22q-10 0 -18.5 1.5t-17 5t-12 5.5t-13.5 8.5t-12 7.5q-14 8 -14 28q0 11 8 57q1 4 2.5 12t3.5 16q0 3 1 6.5t1.5 5.5t0.5 3z" />
    <glyph glyph-name="five" unicode="5" horiz-adv-x="440" 
d="M241 404q29 12 69 12q82 0 120 -56q21 -28 21 -77q0 -71 -54 -172q-80 -144 -184 -144q-83 0 -178 99q-26 31 -26 41t10 14q2 1 16 14t31 13q22 0 44 -13q18 -11 30 -32t19 -28q30 -30 46 -30q8 0 22 13q50 43 86 133q2 6 6.5 24.5t8.5 28.5q11 30 11 62q0 38 -19 38
q-46 0 -119 -73q-14 -14 -33 -14q-24 0 -54 18q-20 11 -20 20q0 3 3 9q14 42 41 132.5t39 126.5q3 10 24.5 22t38.5 12q9 0 15 -1.5t9 -3t4 -1.5q11 0 29 3q120 21 175 21q29 0 57.5 -21.5t28.5 -39.5q0 -11 -11.5 -21t-32.5 -10q-3 0 -19 2.5t-30 2.5q-38 0 -99.5 -7.5
t-89.5 -15.5q-8 -2 -9 -3.5t-3 -8.5q-7 -22 -20 -61q-7 -21 -7 -25q0 -3 4 -3z" />
    <glyph glyph-name="six" unicode="6" horiz-adv-x="440" 
d="M317 235q-112 -44 -142 -92q-4 -7 -10.5 -15.5t-9.5 -12.5t-5.5 -12.5t-2.5 -19.5q0 -13 6 -23.5t15 -10.5q30 0 84 54q39 36 83 114q7 12 7 17q0 6 -4 6q-8 0 -21 -5zM423 537q-4 0 -15 -8q-104 -83 -176 -210q-5 -9 -5 -14q0 -2 3 -2q4 0 12 5q17 10 69 25q27 8 59 8
q29 0 55 -31q3 -4 12.5 -15t13 -15.5t7.5 -12.5t4 -15q0 -10 -7 -30q-49 -139 -184 -229q-29 -19 -72 -19q-57 0 -96 31q-5 4 -22 16.5t-23 18.5q-21 21 -21 60q0 25 8 49q87 261 217 374q6 5 26.5 25t34 32t36 23t42.5 11q24 0 47 -13t27 -23q4 -9 4 -20q0 -25 -32 -25
q-6 0 -14.5 2t-9.5 2z" />
    <glyph glyph-name="seven" unicode="7" horiz-adv-x="440" 
d="M187 257q-6 0 -18 1.5t-30.5 7.5t-23.5 15q-9 18 -9 41q0 26 23 26q17 0 31 -5q14 -6 46 -6q39 0 42 4q4 3 12 13q6 8 23.5 31.5t21.5 29l16 22t16.5 23.5t12.5 20t14 23t12 23q5 10 5 17t-29 7q-89 0 -125 -30q-9 -8 -11.5 -23.5t-9 -24.5t-26.5 -9q-36 0 -52 21
q-8 10 -10.5 29.5t-6.5 26.5q-5 11 -5 21q0 16 17 26.5t35.5 14.5t54.5 9q32 5 54 7q27 5 91 5q76 0 95 -12q7 -4 18.5 -12t25 -23t13.5 -26q0 -12 -4.5 -25t-9 -20.5t-15 -22.5t-13.5 -20q-16 -26 -57 -77q-20 -25 -20 -27q0 -3 6 -3q52 0 77 -26q11 -12 11 -27
q0 -25 -18 -25q-4 0 -14.5 1.5t-15.5 1.5q-25 0 -43.5 -3t-38.5 -8t-37 -8q-134 -195 -134 -259q0 -16 -11 -16q-3 0 -12.5 -8.5t-19.5 -8.5q-14 0 -26 5q-16 9 -26 20q-21 24 -21 29q0 45 123 230q0 4 -4 4z" />
    <glyph glyph-name="eight" unicode="8" horiz-adv-x="440" 
d="M355 555q-30 -21 -47 -67q-11 -38 -11 -88q0 -5 2 -5q5 0 26 12q9 5 45 21t51 28q13 10 13 29q0 22 -16 38q-10 10 -14 10q-1 0 -4 -1.5t-5 -1.5q-21 0 -28 24q-2 4 -5 4q-2 0 -7 -3zM182 58q3 0 4 6q10 31 10 79q0 23 -4 73q-2 13 -5 13t-11 -6q-49 -30 -49 -74
q0 -27 14 -49q17 -23 27 -32q10 -10 14 -10zM190 341q0 7 -0.5 21t-0.5 22q0 130 40.5 195.5t99.5 65.5q25 0 64 -13q14 -5 22 -14.5t10 -10.5q34 -14 61.5 -51.5t43.5 -77.5q6 -14 6 -29q0 -41 -39 -63q-162 -81 -199 -97q-3 -3 -3 -10q0 -5 4.5 -63t4.5 -98
q0 -139 -47 -145q-27 -6 -30 -6q-44 0 -70 15q-52 31 -93.5 81t-41.5 103q0 25 7.5 44.5t26 36t32.5 26t45.5 27.5t46.5 27q10 4 10 14z" />
    <glyph glyph-name="nine" unicode="9" horiz-adv-x="440" 
d="M399 522q-49 -23 -74 -36t-58 -33t-57 -43t-45 -52q-11 -15 -11 -19q0 -6 10 -6t25 5q76 25 133 69t84 92q12 22 12 26q0 3 -3 3q-2 0 -16 -6zM298 279q-3 0 -8 -3q-13 -8 -26 -12t-25 -6t-15 -3q-21 -8 -46 -8q-23 0 -52 22q-5 4 -14 10t-12.5 8.5t-8.5 8.5t-9 15
q-3 5 -9.5 14.5t-9 16t-2.5 16.5q0 16 6 30q16 30 36.5 54t51.5 46t51 34t67 37.5t67 36.5q11 7 39 15.5t52 8.5q26 0 36 -10q6 -6 19 -14t20 -14q31 -21 31 -33q0 -27 -22 -58q-7 -8 -13 -22q-14 -38 -54.5 -115t-57.5 -132q-7 -20 -24 -67.5t-27.5 -82t-14.5 -67.5
q-1 -8 -15 -18t-31 -10q-15 0 -28 9q-40 27 -40 42q0 4 8 26q13 35 42 112t40 109q0 4 -2 4z" />
    <glyph glyph-name="colon" unicode=":" horiz-adv-x="290" 
d="M331 366q0 -4 -3 -34q-2 -11 -15.5 -33t-30.5 -22t-44 9q-45 15 -45 53q0 15 9 35q2 6 7 12.5t6 8.5q10 21 21 26q7 2 16 2q18 0 28 -4.5t27 -19.5q24 -20 24 -33zM204 144q10 0 21 -4.5t17.5 -10t14 -12.5t8.5 -8q21 -16 21 -59q0 -33 -12 -39q-28 -14 -53 -14
q-12 0 -20 3t-11.5 5.5t-8.5 9.5t-7 9l-11 11t-11 13t-3 12q0 3 2.5 12.5t3.5 21.5q1 13 14.5 31.5t34.5 18.5z" />
    <glyph glyph-name="semicolon" unicode=";" horiz-adv-x="280" 
d="M298 357q4 -5 4 -19q0 -21 -10.5 -42t-27.5 -21q-5 0 -17.5 -0.5t-19.5 -0.5q-41 0 -59 17q-12 11 -12 29q0 32 20 62q11 16 18.5 22t20.5 6q33 0 53 -25q4 -5 15 -14t15 -14zM184 112q26 -10 26 -40q0 -14 -2.5 -21t-9 -13t-8.5 -10q-21 -33 -64 -106t-72 -117
q-10 -14 -28 -14q-8 0 -22 2t-17 2q-35 3 -35 40q0 8 11 25q39 59 85.5 146.5t54.5 102.5q14 24 34 24q9 0 26 -9.5t21 -11.5z" />
    <glyph glyph-name="less" unicode="&#x3c;" horiz-adv-x="590" 
d="M429 130q9 -3 18.5 -3.5t16 -2.5t15.5 -10q12 -11 12 -21q0 -7 -5 -14t-12.5 -13.5t-8.5 -8.5q-14 -19 -41 -19q-12 0 -25.5 4t-22 8.5t-23.5 13t-21 11.5q-23 12 -43.5 24.5t-64 40.5t-79.5 51q-23 15 -23 32q0 10 7 27q2 4 7 10t7 11q3 9 12 15.5t50 30.5
q17 10 75.5 42.5t85.5 49.5q91 56 103 58q1 0 12 4t19 4q9 0 13 -1q14 -4 21.5 -10.5t11.5 -20.5l5 -14q4 -8 4 -19q0 -13 -10 -20q-3 -2 -5 -2q-8 0 -47 -23q-5 -3 -24.5 -9.5t-39.5 -18.5q-77 -45 -137 -79q-38 -22 -38 -25t17 -13q16 -10 47.5 -29.5t52.5 -31.5
q43 -24 58 -29z" />
    <glyph glyph-name="equal" unicode="=" horiz-adv-x="590" 
d="M314 371l77 4q4 0 31 3.5t58 6t50 2.5t30.5 -4t16 -11t5.5 -11.5t1 -11.5q0 -21 -10 -38q-5 -11 -24 -11q-31 0 -62 -3l-152 -14q-9 -1 -24 -1q-106 0 -154 12q-28 7 -28 50q0 16 4 23q10 16 31 16q4 0 40.5 -6.5t79.5 -6.5q9 0 30 1zM286 245q93 0 164 10q33 5 58 5
q33 0 45 -12q14 -14 14 -21q0 -4 -11 -45q-3 -11 -19 -11q-3 0 -11.5 1t-10.5 1q-8 0 -35 -3.5t-80 -7.5t-124 -4q-115 0 -130 10q-14 10 -24 27t-10 31q0 8 4.5 12.5t4.5 5.5q2 11 23 11l47 -5q47 -5 95 -5z" />
    <glyph glyph-name="greater" unicode="&#x3e;" horiz-adv-x="590" 
d="M417 293q-114 70 -126 75q-13 5 -35.5 19t-26.5 16q-26 12 -26 38q0 14 5 22l5 13q5 13 12 19t20 6q11 0 24.5 -10t15.5 -11q16 -8 26.5 -17.5t21.5 -15.5q68 -38 204 -123q24 -15 24 -36q0 -13 -8 -24q-5 -6 -9 -10.5t-5.5 -6t-2.5 -3.5q-10 -21 -57 -46
q-134 -73 -192 -111q-59 -38 -102 -38q-46 0 -52 25q-2 10 -6 18t-4 12q0 10 15 20q3 2 8.5 4.5t15.5 6.5t19 8q1 0 41 22q44 23 168 93q37 21 37 25t-10 10z" />
    <glyph glyph-name="question" unicode="?" horiz-adv-x="360" 
d="M364 262q18 -11 22 -21q6 -15 6 -21q0 -15 -23 -19q-1 0 -12.5 -3.5t-19.5 -3.5q-94 0 -147 22q-15 6 -22.5 13t-16.5 22q-11 19 -11 35q0 11 7 18q1 1 1.5 2.5t1.5 4t3 5.5q11 19 24 37.5t28.5 36t26 29t26.5 28.5t20 21q72 78 72 91q0 9 -7.5 17t-18.5 8q-8 0 -16 -5
q-24 -14 -24 -34q0 -3 0.5 -11t0.5 -13q0 -25 -32 -25q-34 0 -56 28q-7 9 -7 39q0 44 23 65q35 32 89 32t95 -24q55 -33 55 -81q0 -33 -19.5 -61t-89.5 -96q-27 -26 -50 -53t-34 -43t-11 -19q0 -6 21 -6q9 0 20.5 1t12.5 1q34 0 62 -17zM183 110q19 0 53 -23.5t34 -38.5
q0 -28 -10 -38q-28 -28 -57 -28q-12 0 -24.5 5t-19.5 9.5t-8 6.5q-2 4 -8 10.5t-9.5 11.5t-3.5 10q0 16 4 28q5 16 9 24t14 15.5t26 7.5z" />
    <glyph glyph-name="at" unicode="@" horiz-adv-x="700" 
d="M454 186q-10 -14 -32 -28.5t-46 -14.5q-23 0 -48 15l-23 14q-42 26 -42 83q0 48 25.5 105t47.5 82q69 77 125 77q25 0 55.5 -20t40.5 -36q3 -5 5 -16.5t13 -17.5q15 -9 15 -24q0 -8 -5 -18q-49 -98 -49 -145q0 -20 7 -20q6 0 18 10q31 26 55 85.5t24 118.5
q0 68 -36.5 111t-117.5 43q-18 0 -39.5 -5.5t-52 -20t-64.5 -48t-63 -81.5q-33 -54 -49 -115t-16 -106q0 -74 40.5 -115t103.5 -41q71 0 137 48q15 11 37 11q20 0 36.5 -9.5t23.5 -26.5q2 -4 5.5 -7.5t5 -8.5t1.5 -17q0 -7 -6.5 -10t-17 -6t-15.5 -6q-85 -59 -192 -59
q-37 0 -83 15.5t-72 36.5q-58 46 -81.5 96t-23.5 117q0 72 19.5 137t67.5 140q54 85 127.5 124.5t138.5 39.5q67 0 115.5 -19t94.5 -64q77 -76 77 -181q0 -59 -22 -117t-55 -99q-45 -56 -99 -56q-40 0 -78 25q-20 13 -24 28q-1 4 -2 4t-7 -8zM490 445q-11 0 -29 -15
q-32 -27 -63.5 -81.5t-37.5 -84.5q-3 -15 -3 -28q0 -6 2 -6q3 0 8 5q3 3 8.5 8t7.5 7q33 33 58 66t25 42q0 2 -3 5.5t-3 11.5q0 10 14 24q22 22 22 36q0 10 -6 10z" />
    <glyph glyph-name="A" unicode="A" 
d="M325 167q-78 -30 -155 -47q-9 -2 -13 -11q-17 -45 -17 -96q0 -6 1 -16.5t1 -12.5q0 -6 -7 -10q-3 -2 -10 -8.5t-15 -10.5t-16 -4q-9 0 -19 5l-12 6q-16 8 -24 21t-9 23t-1 30q0 30 9 71q2 9 2 12q0 2 -6 6q-30 17 -30 33q0 30 15 55q6 9 18 9q13 0 32 -10q6 -3 8 -3
q3 0 9 11q150 271 274 451q11 17 44 20q2 0 10.5 2t17.5 3t17 1q26 0 40 -11q4 -3 8 -11.5t4 -11.5q0 -8 -7 -48t-7 -46q0 -14 -3 -32q-5 -29 -10 -83.5t-8 -95t-3 -46.5q0 -9 5 -9l5 1q5 0 12 1t14 1q56 0 78 -25q8 -9 8 -16q0 -6 -5 -13q-22 -29 -70 -29q-36 0 -48 -12
q-4 -4 -6 -22q-6 -66 -6 -163q0 -27 5 -47t9.5 -30t4.5 -12q0 -14 -12 -26t-26 -12q-44 0 -66 22q-8 8 -14 46.5t-6 75.5q0 24 2.5 71t2.5 50q0 9 -3 9q-8 0 -22 -6zM369 521q-84 -141 -154 -281q-7 -14 -7 -17t5 -3q18 0 68 19l64 24q8 3 8 12q0 8 14 123t14 122
q0 12 -2 12q-3 0 -10 -11z" />
    <glyph glyph-name="B" unicode="B" horiz-adv-x="574" 
d="M459 386q30 0 45 -6q27 -11 50 -31.5t33 -39.5q8 -16 8 -37q0 -56 -36 -126q-5 -10 -15.5 -26.5t-25 -39.5t-22.5 -36q-22 -36 -66 -57t-101 -21q-61 0 -103 16q-20 8 -33.5 15.5t-18.5 11t-10 3.5q-20 0 -32.5 6.5t-41.5 31.5q-7 6 -8.5 16t-3.5 12l-13.5 13.5t-18 19
t-6.5 11.5q0 8 -8 21t-8 24q0 24 49 24q8 0 14 -0.5t10 -0.5l4 -1q8 0 11 15q29 141 77 272q9 25 9 29q0 5 -4 12q-7 13 -7 31q0 7 10 11q18 8 27 22.5t23 50.5q14 37 25 44q8 6 19 6q18 0 41.5 -12.5t28.5 -12.5q9 0 19 5q38 18 72 18q66 0 110 -38q23 -20 23 -37
q0 -8 -2 -15q-9 -32 -27.5 -61t-52 -69t-44.5 -55q-10 -14 -10 -16q0 -3 10 -3zM282 359q20 28 25 34q3 4 33 35.5t47 51.5t26 33q47 68 47 85q0 5 -6 5q-3 0 -15 -2.5t-32.5 -10t-36.5 -16.5q-25 -15 -37 -32q-7 -10 -18 -38q-2 -5 -15.5 -42t-21.5 -58q-21 -54 -21 -63
q0 -3 2 -3t11 8t12 13zM444 321q-43 0 -121 -52q-51 -33 -82 -33q-5 0 -9 -12q-8 -24 -17.5 -72t-9.5 -60q0 -6 8 -13q30 -27 54.5 -39.5t56.5 -12.5q31 0 58 36.5t69 121.5q25 50 25 97q0 23 -7.5 31t-24.5 8z" />
    <glyph glyph-name="C" unicode="C" horiz-adv-x="472" 
d="M396 557q-28 -27 -44.5 -46.5t-64.5 -84.5q-77 -104 -124 -265q-4 -16 -4 -44q0 -31 11 -42q22 -22 34 -22q17 0 45 14q27 14 58 39t56.5 50t29.5 28q15 12 48 12q35 0 51 -26q7 -11 7 -19q0 -3 -1.5 -5t-5.5 -5t-7 -6q-5 -5 -26 -27.5t-34.5 -35.5t-38.5 -33.5
t-46 -32.5t-50 -21t-57 -9q-55 0 -88 16q-28 14 -54 36.5t-31 45.5q-6 28 -6 61q0 60 14 99q111 312 301 421q33 19 87 19q26 0 49 -9q11 -5 16 -8t9.5 -9t8.5 -10q39 -35 39 -61q0 -13 -17 -51q-19 -42 -27 -65t-39 -23q-4 0 -18 2q-28 5 -43 17q-17 13 -17 29
q0 14 17 38.5t18 35.5q1 6 7 18q5 10 5 12q0 3 -4 3q-3 0 -11.5 -3t-23.5 -11.5t-29 -21.5z" />
    <glyph glyph-name="D" unicode="D" horiz-adv-x="554" 
d="M93 124q29 119 91 277q8 21 8 26q0 4 -3 4q-2 0 -8.5 -1.5t-9.5 -1.5q-14 0 -25.5 10.5t-11.5 32.5q0 27 10 40q9 13 63 50q107 75 213 75q48 0 79 -12.5t69 -41.5q30 -23 46.5 -47.5t16.5 -63.5q0 -51 -28 -107q-3 -7 -8 -18.5t-10 -22.5q-28 -59 -52.5 -103
t-57.5 -91.5t-73 -82.5t-85 -56q-36 -17 -64 -17q-16 0 -32 2t-25 4.5t-10 2.5t-7 -3t-27 -3q-20 0 -44 17q-11 7 -17.5 15.5t-14.5 11.5q-79 31 -79 71q0 22 29 22q6 0 21.5 -1.5t18.5 -1.5q2 0 7 -1.5t8 -1.5q5 0 7 2.5t5 14.5zM366 536v-2q1 -2 1 -5q0 -6 -8.5 -16
t-10.5 -13q-4 -8 -26 -56.5t-28 -62.5t-23.5 -54t-25.5 -63t-19 -56t-18 -62q-18 -71 -18 -88q0 -6 18 -6q9 0 21 3q36 7 65 36q125 125 201 318q23 58 23 78q0 8 -1.5 17t-7 24t-20 24.5t-35.5 9.5q-14 0 -31.5 -4.5t-33 -10.5t-18.5 -7q-5 -1 -5 -4z" />
    <glyph glyph-name="E" unicode="E" horiz-adv-x="508" 
d="M332 416q47 18 92 18q51 0 89 -23q20 -12 20 -37q0 -11 -22 -17.5t-34 -6.5q-6 0 -17 1.5t-15 1.5q-27 0 -53 -6.5t-57.5 -19t-50.5 -17.5q-27 -7 -31 -18q0 -1 -22.5 -51.5t-35.5 -89.5t-13 -66q0 -29 12 -29q28 0 69 18q17 8 38 16t27 11q9 4 42 24t65 34.5t56 14.5
q8 0 14 -2q7 -2 15 -10q3 -3 12.5 -9.5t15 -12.5t5.5 -13q0 -9 -12 -14q-13 -5 -19 -11q-15 -15 -27 -21q-62 -33 -94 -48.5t-98.5 -34t-132.5 -18.5q-14 0 -45.5 14t-45.5 34q-10 14 -10 45q0 48 23 123q5 16 11.5 33.5t15 38.5t12.5 33q-13 15 -13 34q0 8 4.5 13.5
t19.5 9.5q14 4 18 7t9 15q20 46 33 82q5 14 5 17q0 4 -3 4q-1 0 -3.5 -0.5t-7 -1t-9.5 -0.5q-16 0 -32 13q-24 20 -24 46q0 11 11 14q41 11 177 60q45 16 125 34t138 18q36 0 52 -8q24 -12 39.5 -28.5t15.5 -31.5q0 -19 -21 -20q-8 -1 -16 -4t-11 -3q-4 0 -21 6.5t-35 6.5
q-63 0 -220 -47q-8 -2 -11 -11q-14 -38 -32 -84q-11 -28 -11 -31q0 -2 2 -2q3 0 22 7z" />
    <glyph glyph-name="F" unicode="F" horiz-adv-x="446" 
d="M206 476q-38 -18 -54 -18q-20 0 -37.5 16t-17.5 27q0 7 6.5 19t7.5 15q1 6 11 9q63 15 151 52q19 8 147 41q64 16 119 16q111 0 111 -74q0 -7 -9 -11q-24 -13 -42 -13t-30 13q-8 9 -23 9q-8 0 -31 -5.5t-30 -6.5q-24 -3 -62.5 -13.5t-50.5 -12.5q-4 -1 -5 -5.5
t-1.5 -11.5t-2.5 -11q-42 -76 -65 -136q-6 -16 -6 -20q0 -3 3 -3q5 0 22 4q45 11 121 23q2 0 6 1.5t8.5 2t9.5 0.5q10 0 31 -10q26 -13 34 -21t8 -21q0 -14 -17 -18q-226 -46 -248 -52q-11 -3 -14 -11q-7 -17 -23.5 -69t-18.5 -57q-5 -13 -5 -19q0 -4 -2.5 -11.5t-4.5 -25.5
t-2 -47q0 -28 -21 -28q-43 0 -77 21q-12 8 -12 18q0 20 4.5 46.5t8 41.5t13 50t11.5 41q4 15 4 19t-5 4q-16 0 -28 12t-12 27q0 3 -3.5 9t-3.5 8q0 6 9 9q10 3 32.5 8t32.5 9q6 2 10 12q9 21 26.5 65.5t27.5 68.5q6 14 6 17t-2 3q-3 0 -15 -6z" />
    <glyph glyph-name="G" unicode="G" horiz-adv-x="596" 
d="M545 425q-22 6 -32.5 18t-10.5 23q0 8 11 21.5t13 18.5q3 9 8.5 17.5t6.5 9.5q7 14 7 35q0 19 -14 19q-8 0 -25 -3q-16 -3 -31.5 -10.5t-32 -20.5t-26 -21.5t-26.5 -25.5l-20 -20l-26 -25q-64 -62 -111 -147.5t-66 -170.5q-7 -35 -7 -51q0 -18 8 -34q6 -13 10.5 -16.5
t13.5 -3.5q14 0 45.5 13t54.5 34q44 40 77 67t47.5 38.5t23.5 20.5q33 33 33 42q0 2 -3 2t-13 -4q-32 -13 -57 -13q-32 0 -46 11q-2 2 -6 4.5t-5.5 4t-4.5 4t-4 3.5l-3 3l-3 3t-2 3t-1 3.5t-0.5 4t-0.5 4.5q0 17 3.5 22t20.5 8q2 0 18 2.5t25 4.5q28 6 64 18t54 12
q29 0 57 -27q25 -24 25 -44q0 -13 -15 -43q-36 -74 -51.5 -146t-15.5 -114q0 -7 -15.5 -17t-33.5 -10q-8 0 -16.5 3t-9.5 3q-22 3 -28 8t-6 21q0 11 3 28.5t6 30.5l3 14q0 3 -2 3t-10 -8q-57 -55 -113 -76q-49 -18 -87 -18q-58 0 -101 43q-47 47 -47 87q0 31 6.5 69t24 94.5
t58.5 124.5t100 134q35 40 89.5 81t100.5 59q29 11 65 11q27 0 65 -13.5t57 -27.5q33 -25 33 -68q0 -13 -3 -28.5t-6 -25t-9 -26t-7 -19.5q-3 -10 -18 -26t-34 -16q-8 0 -19 5.5t-13 5.5z" />
    <glyph glyph-name="H" unicode="H" horiz-adv-x="562" 
d="M343 237l-96 -18q-7 -1 -10 -7q-13 -22 -22 -70q-9 -44 -14 -56t-5 -21q0 -4 3 -20t3 -28q0 -9 -1.5 -15t-10 -11t-23.5 -5q-26 0 -36 10q-3 3 -16.5 10t-15.5 11q-1 3 -6 4q-11 2 -11 17q0 25 3 34q0 1 1 7t3 10q1 2 1.5 8t0.5 8q1 8 4.5 26t5.5 26q3 15 3 21q0 4 -3 4
q-1 0 -5.5 -0.5t-11.5 -1t-14 -0.5q-52 0 -77 29q-5 5 -8.5 22t-3.5 24q0 19 23 19q10 0 30 -5q1 0 4 -1.5t6 -2t5 -0.5q17 0 79 13q6 1 9 8q9 18 20 58t18 57q62 154 126 271q8 15 34 15q18 0 31 -8q5 -3 19.5 -8.5t20.5 -12t6 -17.5q0 -9 -4 -14q-18 -24 -57.5 -105
t-68.5 -149q-20 -47 -20 -56q0 -5 4 -5t20 3q52 9 108 25q8 2 11 9q23 50 83 229q3 9 8 12q21 15 30 15q2 0 12.5 -2t23.5 -2q20 0 33 -11t13 -21q0 -17 -10 -47q-9 -27 -29.5 -74t-23.5 -54q-7 -17 -7 -19q0 -3 3 -3q2 0 8 2q33 11 55 11q10 0 18 -1t11.5 -2.5t7 -3.5
t4.5 -2l5 -1q5 -1 9.5 -2.5t11 -5.5t13 -12t12.5 -20q4 -8 4 -16q0 -19 -18 -19q-28 0 -54.5 -4t-61.5 -11.5t-50 -10.5q-11 -2 -14 -8q-11 -21 -17.5 -40.5t-10.5 -37t-7 -25.5q-21 -61 -38 -199q-2 -17 -33 -17q-19 0 -46 10q-29 9 -29 61q0 15 3 24q8 27 22.5 90.5
t23.5 90.5q3 9 3 13t-6 4q-10 0 -24 -3z" />
    <glyph glyph-name="I" unicode="I" horiz-adv-x="254" 
d="M132 -28q-3 0 -10.5 -9t-16.5 -9q-7 0 -14.5 5.5t-9.5 5.5q-5 1 -10.5 4t-11 7t-7.5 5l-3 1q-3 1 -5.5 2t-4.5 4t-2 7q0 7 6 36t12 39q4 7 8 23q17 69 40 140.5t52.5 157t46.5 137.5q4 12 13.5 29.5t25.5 65.5q5 16 40 16q29 0 55.5 -11t26.5 -27q0 -23 -4 -32.5
t-14 -19.5t-17 -24l-4 -6q-3 -6 -5 -11q-26 -71 -90 -252.5t-64 -199.5q0 -2 1 -6.5t1 -8.5q0 -21 -7.5 -44t-27.5 -25z" />
    <glyph glyph-name="J" unicode="J" horiz-adv-x="400" 
d="M496 544q-106 -225 -161 -404q-22 -73 -56 -126q-27 -43 -61.5 -71t-69.5 -28q-22 0 -47.5 13t-26.5 13q-80 26 -80 166q0 51 8 85q2 8 6.5 19.5t15 24.5t22.5 13q11 0 20 -2t14 -2q20 0 34 -16t14 -29q0 -9 -8.5 -25.5t-10.5 -23.5q-2 -9 -5 -15l-4.5 -9t-2.5 -12
t-1 -27q0 -25 5 -45.5t11 -29.5t10 -9q26 0 58 52q28 44 60 134q72 209 137 351q15 34 15 35q0 4 -5 4q-1 0 -73 -18q-4 -1 -14 -7q-23 -14 -67 -14q-55 0 -62 25q-1 2 -6 7t-5 14q0 6 1 13t3 14t3 11q2 12 19 12q36 0 123 19q111 24 147 24q28 0 59 -22q25 -18 25 -31
q0 -17 -7.5 -30t-19.5 -27t-17 -26z" />
    <glyph glyph-name="K" unicode="K" horiz-adv-x="532" 
d="M297 396q5 0 19 7q32 16 58.5 30.5t45.5 25t41 27.5t32.5 24t33.5 29t29.5 28t35.5 35.5t38 38.5q5 5 16 5q19 0 39 -10q7 -3 15 -8.5t12 -6.5q8 -2 14 -8.5t6 -12.5q0 -5 -10 -17q-94 -115 -231 -196q-49 -29 -147 -78q-11 -5 -11 -16q0 -8 7 -22q6 -12 10 -26t7 -20
q24 -49 77 -122t98 -111q7 -6 23 -15t25 -17.5t9 -21.5q0 -22 -21 -24q-6 0 -11.5 -3.5t-17.5 -3.5q-67 0 -127 71q-4 5 -17 19t-26 28.5t-23 27.5q-61 78 -99 171q-11 27 -14 27t-15 -26q-49 -107 -68 -210q-2 -13 -21 -24q-14 -8 -22 -8q-14 0 -24 10q-7 7 -14 10
q-37 15 -37 34l10 32q82 262 225 537q7 12 12.5 16.5t6.5 5.5q20 25 43 25q10 0 20 -5q4 -2 8 -7t7 -6q4 -2 10 -3.5t9.5 -3t8.5 -6.5q8 -8 8 -19t-7 -21q-57 -89 -88 -156q-11 -22 -11 -26t3 -4z" />
    <glyph glyph-name="L" unicode="L" horiz-adv-x="450" 
d="M247 73q83 24 166 59q7 3 17 3q26 0 55 -16.5t29 -30.5q0 -1 2.5 -8.5t2.5 -10.5q0 -9 -4 -14q-4 -7 -14 -9t-25 -2.5t-24 -2.5q-31 -7 -87 -27.5t-106.5 -33.5t-99.5 -13q-51 0 -96 63q-5 6 -5 18q0 14 9.5 40t10.5 32q3 16 9 35q26 76 60.5 155.5t86 188t70.5 149.5
q6 14 34 14q14 0 25.5 -6.5t12.5 -6.5q40 -10 40 -34q0 -8 -6 -22t-6 -15q-3 -15 -9 -20q-25 -22 -48 -83q-3 -8 -12 -25t-15 -29q-61 -133 -129 -321q-8 -22 -8 -31t6 -9q18 1 58 13z" />
    <glyph glyph-name="M" unicode="M" horiz-adv-x="654" 
d="M509 312q-12 -12 -33 -36t-40 -46.5t-21 -24.5q-8 -9 -16 -9l-43 9q-45 10 -57 30q-18 31 -20 89q-1 32 -1 43q0 6 -3 6q-4 0 -18 -31q-21 -45 -42 -105q-61 -174 -61 -239q0 -8 -5.5 -12t-15 -6.5t-13.5 -5.5q-10 -7 -18 -7q-9 0 -24 8t-16 8q-16 3 -23.5 19t-7.5 27
q0 23 15.5 52.5t17.5 38.5q30 114 126.5 320.5t103.5 224.5q7 16 10 20t9 4q4 0 12.5 -2t16.5 -3q67 -8 67 -36q0 -15 -9 -45l-5 -15t-6.5 -20t-5.5 -16q-6 -20 -8 -53q-2 -39 -2.5 -71t0.5 -59.5t1 -35.5q0 -7 3 -7q4 0 20 17q7 7 108.5 103t140.5 150q10 14 25 14
q9 0 24 -4t18 -4q16 0 27 -17.5t11 -31.5q0 -9 -12 -27q-132 -197 -169 -510q-5 -39 -9 -88q-1 -16 -15 -16q-5 0 -12 2.5t-8 2.5t-5 -1t-7 -1q-22 0 -55 24q-10 7 -10 14q0 9 3 27q22 134 38 212q14 69 31 114q4 11 4 14q0 4 -2 4t-14 -12z" />
    <glyph glyph-name="N" unicode="N" horiz-adv-x="598" 
d="M482 4q-27 -27 -53 -27q-24 0 -47 13q-30 17 -39 27.5t-18 37.5t-18 71t-14 76.5t-13.5 90t-10.5 73.5q-5 31 -8 31q-4 0 -13 -31q-56 -187 -70 -254q-14 -65 -14 -95q0 -46 -46 -46q-14 0 -23 2q-7 1 -28 13t-21 22q0 16 14 68q15 57 52 179.5t42 142.5l7 26
q27 91 42 167q2 8 11 11.5t9 6.5q0 1 -8.5 19t-8.5 28q0 15 15 22q23 10 56 10q22 0 31 -9q6 -7 9 -14q33 -99 53.5 -278t35.5 -244q5 -23 8 -23t13 24q15 36 31 81.5t24 71.5t27 88.5t23 77.5q3 10 9 27t9 27q4 17 8 52.5t9 53.5q5 16 9.5 20.5t16.5 4.5q13 0 29 -4
q5 -1 14 -2.5t14.5 -3t10.5 -5.5q28 -22 28 -41q0 -10 -11 -32q-4 -8 -14 -38q-12 -37 -42 -132t-59.5 -182t-65.5 -176q-9 -22 -15 -28z" />
    <glyph glyph-name="O" unicode="O" horiz-adv-x="490" 
d="M368 536q-6 0 -24 -19q-102 -108 -143 -241q-17 -55 -17 -127q0 -45 19 -73q13 -20 31 -20q35 0 58 34q42 64 83 171.5t41 185.5q0 71 -34 81q-6 2 -9.5 5t-4.5 3zM456 598q72 -64 72 -171q0 -35 -10 -77q-50 -209 -131 -312q-18 -23 -57 -43t-86 -20q-35 0 -68 11
q-16 5 -34.5 20.5t-29.5 31.5q-33 48 -33 115q0 97 30 177.5t89 168.5q47 70 84 98q47 36 66 36q12 0 31 -8q29 -12 43 -14q23 -3 34 -13z" />
    <glyph glyph-name="P" unicode="P" horiz-adv-x="490" 
d="M489 582q-16 -5 -45.5 -12.5t-42 -11.5t-30 -14t-32.5 -24q-8 -23 -23.5 -63t-27 -72.5t-18.5 -60.5q-1 -4 -1 -9q0 -6 4 -9q4 -4 16.5 -12.5t18.5 -8.5q7 0 27 15q84 62 135 157q46 86 46 123q0 6 -7 6t-20 -4zM226 204q-18 -57 -35 -127t-17 -85q0 -6 -9 -14
q-11 -9 -33 -9q-16 0 -25 9q-4 4 -15 9t-18.5 11t-7.5 14q0 3 4 20q22 93 34 124q4 10 5 21q1 12 6.5 30t13.5 40t11 31q5 16 5 19t-7 10q-15 15 -15 28q0 5 2 7.5t6 3.5t5 2q10 7 21 10q7 2 11 12q1 2 23 66q4 11 4 13q0 4 -12 11q-8 5 -13 10t-9.5 11.5t-8.5 10.5t-4 13
q0 16 36 40q44 29 64.5 41.5t69 38t95 37t94.5 11.5q4 0 10.5 -0.5t10.5 -0.5q34 0 62 -23q19 -16 27.5 -32t8.5 -45q0 -33 -9 -59t-36 -76q-30 -56 -77.5 -110.5t-95.5 -90.5q-14 -11 -45 -21t-61 -10q-35 0 -50 12q-12 10 -16 10q-3 0 -10 -23z" />
    <glyph glyph-name="Q" unicode="Q" horiz-adv-x="554" 
d="M387 41q-67 -60 -143 -60q-35 0 -52 7q-12 4 -32.5 19t-26.5 18q-36 17 -49 74q-10 47 -10 82q0 59 19 121q20 64 64.5 132t100.5 114q2 2 40 27q36 24 79.5 37t66.5 13q13 0 24 -3t23.5 -8.5t15.5 -6.5q47 -16 67 -34q38 -33 38 -130q0 -101 -116 -269q-6 -9 -13.5 -18
t-10 -13t-2.5 -7q0 -4 9 -19q31 -56 71 -108t70 -73q17 -12 17 -18q0 -22 -42 -22q-49 0 -78 25q-60 51 -108 119q-7 10 -9 10q-3 0 -13 -9zM419 252q35 49 62 114t27 119q0 29 -9 51q-5 12 -14 12q-25 0 -61 -17q-95 -46 -173 -162q-68 -101 -68 -203q0 -31 6.5 -56.5
t14 -37t13.5 -11.5q22 0 59.5 26.5t57.5 49.5q6 7 6 14q0 4 -6 16q-54 108 -58 124q-5 20 -5 25q0 22 34 22q15 0 30 -5.5t19 -5.5q27 0 35 -24q1 -3 6 -21.5t9 -27.5q4 -10 7 -10q2 0 8 8z" />
    <glyph glyph-name="R" unicode="R" horiz-adv-x="494" 
d="M204 192q-27 -116 -27 -174q0 -9 -15 -16t-33 -7q-15 0 -25 5q-15 8 -20.5 11t-12.5 10.5t-7 14.5q0 2 4 28q23 147 96 359q3 8 12 26t12 27q0 1 4 12t4 13q0 3 -7 9q-27 20 -27 43q0 9 8 15q36 28 92.5 50t118.5 22q85 0 121 -28q30 -23 39 -41q16 -31 16 -66
q0 -46 -23 -94t-56 -83q-19 -20 -44 -34.5t-44 -21t-61 -19.5q-16 -5 -16 -9q0 -5 12 -25q7 -12 25 -39.5t27 -42.5q2 -3 3.5 -5t3.5 -3.5t3 -3.5q18 -23 53 -58q27 -27 63 -35q14 -3 28 -21t14 -34q0 -27 -39 -27q-45 0 -100 34q-96 60 -175 211q-14 27 -16 27
q-4 0 -11 -30zM263 327q12 0 27 6q5 2 18.5 5.5t26.5 11.5q112 68 112 191q0 8 -1.5 12.5t-9 9t-21.5 4.5q-27 0 -57 -11q-9 -3 -12 -9q-49 -84 -87 -197q-5 -15 -5 -19t9 -4z" />
    <glyph glyph-name="S" unicode="S" horiz-adv-x="432" 
d="M340 508q0 -46 13 -101q2 -10 32 -120t38 -156q7 -42 7 -60q0 -72 -64 -96q-13 -5 -44 -5q-71 0 -136.5 37t-115.5 99q-6 7 -15.5 18t-13.5 16q-29 41 -29 83q0 34 22 43q6 2 12 2q28 0 59 -18q15 -9 27 -21.5t12 -18.5q0 -7 -2.5 -18t-2.5 -17q0 -22 32 -55t63 -50
q37 -21 51 -21q16 0 22.5 11.5t6.5 20.5q0 48 -4 74q-9 59 -38 158.5t-38 149.5q-10 52 -10 75q0 10 3 23q1 3 3 16t4 21t7 20t11.5 19t18 12.5t26.5 5.5q52 0 91.5 -14t61 -37.5t32.5 -46.5t15 -48q5 -28 5 -29q0 -21 -29 -21q-8 0 -23 4q-7 2 -14 5t-13.5 8.5t-9.5 8
t-9.5 9.5t-7.5 8q-4 4 -9 26t-9 30q-8 15 -19 15q-6 0 -12.5 -20.5t-6.5 -44.5z" />
    <glyph glyph-name="T" unicode="T" horiz-adv-x="388" 
d="M203 510q-55 0 -73 22q-5 6 -5 22q0 35 8 43q11 11 23 11q7 0 23 -3.5t45 -3.5q69 0 144 15q82 16 149 16q31 0 69 -22.5t38 -36.5q0 -24 -21 -39q-17 -11 -33 -11q-12 0 -26 14q-2 2 -13 6t-15 4q-65 0 -132 -15q3 -4 3 -8q0 -1 -35 -65q-96 -177 -135 -382
q-4 -21 -4 -57q0 -37 -33 -37q-25 0 -64 23q-18 10 -18 37q0 18 4 34q60 240 140 411q8 17 8 20q0 4 -5 4q-1 0 -6.5 -0.5t-15 -1t-20.5 -0.5z" />
    <glyph glyph-name="U" unicode="U" horiz-adv-x="600" 
d="M185 90q7 0 19 14q4 5 15 16q203 207 319 395q6 9 13 24t11 22q19 29 46 29q2 0 10.5 -1.5t13.5 -1.5q18 -2 27 -15l14 -21q6 -10 6 -17q0 -5 -1.5 -8.5t-4 -7.5t-3.5 -8q-7 -21 -28.5 -58.5t-30.5 -61.5q-70 -186 -70 -417q0 -15 -21 -15q-8 0 -13 1.5t-10 4t-8 3.5
q-7 2 -39 21q-20 12 -21 18q-1 2 -1 6q0 16 4 23q4 6 5 15q2 18 5.5 52t6.5 60.5t6 43.5t3 20q0 2 -2 2t-15 -16q-113 -136 -194 -205q-22 -19 -52 -19q-23 0 -43.5 13.5t-31.5 16.5q-30 8 -37 24q-5 12 -5 64q0 74 26 155q21 64 67 181t59 152q3 8 6 13.5t5 9t3 5.5
q15 30 36 30q7 0 11 -1t11.5 -5t15.5 -7q13 -5 21 -10.5t11.5 -12.5t4 -11.5t0.5 -14.5l-10 -25q-18 -45 -59 -133t-65.5 -154t-33.5 -130q-4 -27 -4 -52q0 -6 2 -6z" />
    <glyph glyph-name="V" unicode="V" horiz-adv-x="470" 
d="M258 145q21 28 40 64q55 104 139 253q38 67 38 119q0 3 -1 10t-1 11q0 21 30 21h11q21 0 29 -2t12 -8.5t8 -9.5q25 -17 25 -36q0 -21 -14 -66t-31 -72q-20 -31 -40.5 -68t-47 -87t-38.5 -73q-8 -14 -24 -41.5t-44.5 -72t-56.5 -75.5t-44 -31q-7 0 -15.5 3t-10.5 3
q-3 0 -8 -3t-13 -3q-23 0 -49.5 19t-26.5 35q0 7 -6.5 19.5t-6.5 18.5q0 2 1 7.5t2 11.5q1 8 2.5 15.5t1.5 11.5q6 64 29 215t27 226q0 8 3.5 25.5t3.5 28.5q0 29 30 29q15 0 24 -1q2 0 10.5 -1t12 -1.5t10.5 -3t11.5 -6.5t7.5 -11q6 -12 7 -29q0 -14 -1 -21
q-7 -50 -29.5 -184.5t-31.5 -206.5q-6 -48 -6 -56q0 -7 3 -7q6 0 28 30z" />
    <glyph glyph-name="W" unicode="W" horiz-adv-x="684" 
d="M205 130q3 0 20 20q94 113 132 198q11 26 13 33q12 62 23 70q5 4 12 4q4 0 10 -1t12 -3t7 -2q21 -3 34 -18q18 -21 18 -44q0 -10 -3 -19q-27 -87 -27 -178q0 -33 3 -66t7 -33q5 0 17 18q80 122 139 356q8 32 8 71q0 35 -11 59.5t-11 43.5q0 29 23 29q4 0 14.5 -1.5
t15.5 -1.5q46 0 60 -32q14 -30 14 -86q0 -63 -20 -157q-48 -221 -165 -387q-25 -35 -54 -35q-14 0 -21.5 3.5t-12.5 3.5q-25 2 -45 18q-2 2 -11 5t-17 8.5t-12 12.5q-15 29 -24 105q-2 17 -5 17q-1 0 -2 -1l-3 -3t-4 -4.5t-5 -6t-6 -6.5q-22 -22 -51.5 -59.5t-52.5 -55.5
q-19 -15 -37 -15t-53 28q-2 2 -10.5 4t-16 6.5t-9.5 11.5q-4 15 -4 32q0 13 2 29t5 33t4 25q5 41 8 54q12 52 31 121t45 157t38 132q6 22 34 22q9 0 26 -4q20 -5 28 -11t18 -20q4 -5 4 -9q0 -5 -5 -17q-60 -144 -105 -336q-24 -103 -24 -115q0 -3 2 -3z" />
    <glyph glyph-name="X" unicode="X" horiz-adv-x="482" 
d="M209 167q-92 -102 -108 -175q-2 -9 -18 -15q-4 -2 -10.5 -8t-13.5 -6q-28 0 -54.5 16t-26.5 31q0 16 5.5 30t16 31.5t14.5 25.5q3 7 14 24q23 36 54 69.5t71 71t60 59.5q13 14 13 20q0 1 -1.5 10t-4 23.5t-4.5 24.5q-20 130 -20 171q0 26 6 37q3 5 3 10q0 3 -1.5 10
t-1.5 10q0 24 46 24q39 0 49 -18q2 -4 13 -18t11 -20q0 -2 -2.5 -11.5t-5 -26t-2.5 -36.5t9 -96q2 -17 5 -17q2 0 27 22q51 45 129 118t95 92q11 13 24 13q7 0 16 -2.5t21.5 -7.5t18.5 -7q16 -5 24.5 -16.5t8.5 -23.5q0 -7 -3 -11q-15 -21 -65.5 -58t-65.5 -51
q-17 -17 -44 -39q-114 -98 -159 -137q-11 -10 -11 -16t7 -39q7 -34 26.5 -108t26.5 -106q2 -11 15 -29t13 -28q0 -9 -9.5 -18t-27.5 -9q-25 0 -65 15q-14 5 -21 20q-19 38 -26.5 68t-16.5 91q-9 59 -12 59t-42 -43z" />
    <glyph glyph-name="Y" unicode="Y" horiz-adv-x="502" 
d="M326 190q-42 -28 -83 -28q-17 0 -28 5q-35 16 -62 40q-42 37 -42 61q0 25 6 105q0 3 2 14t2 21q0 13 5 27.5t5 18.5q2 23 18 107t29 106q5 9 20 9q11 0 33.5 -4.5t26.5 -4.5q14 -1 20.5 -14.5t6.5 -23.5q0 -15 -10 -38t-12 -33q-34 -170 -40 -238q-5 -54 -5 -64
q0 -12 5 -12q8 0 19 7q83 52 127 105t90 140q32 60 32 61q20 35 34 53q7 8 15 8q48 0 74 -28q13 -15 13 -32q0 -7 -6 -15q-201 -280 -277 -850q-4 -33 -8 -38q-2 -3 -10 -3q-2 0 -32 5q-55 9 -60 35q-3 15 -3 29q0 18 3.5 38t10.5 46.5t9 35.5q2 10 5.5 30.5t5.5 28.5
q17 91 67 264q8 28 8 30t-2 2q-3 0 -12 -6z" />
    <glyph glyph-name="Z" unicode="Z" horiz-adv-x="560" 
d="M540 365q56 -8 81 -39q6 -8 6 -19q0 -27 -24 -27q-2 0 -6.5 1t-16 1.5t-29.5 0.5q-34 0 -70.5 -6t-78 -15.5t-65.5 -13.5q-22 -19 -70.5 -52.5t-81 -62.5t-48.5 -61q-4 -8 -4 -16q0 -4 11.5 -9.5t23.5 -5.5q9 0 27.5 -4.5t28.5 -4.5q28 0 63 7.5t59.5 15.5t62 21.5
t51.5 18.5q15 5 30 5q41 0 49 -16q2 -4 17.5 -24.5t15.5 -29.5q0 -13 -17 -13q-4 0 -8 1.5t-7 1.5q-1 0 -1.5 -0.5l-1.5 -1.5t-5.5 -4t-12.5 -6q-136 -57 -257 -57q-118 0 -209 58q-10 6 -28 33.5t-18 41.5q0 21 6 32q21 37 114 114q13 10 13 13q0 1 -16 7q-20 7 -26 15
q-10 13 -10 23q0 4 1.5 12t1.5 12q0 11 8.5 19.5t25.5 8.5q10 0 42 -9t37 -9q12 0 38.5 4t31.5 7q204 127 263 215q5 8 5 13q0 6 -34 11t-63 5q-103 0 -129 -52q-5 -10 -28 -10q-49 0 -67 34q-13 26 -13 45q0 8 6 12q81 53 207 53q107 0 189 -47q10 -6 33.5 -29t23.5 -35
q0 -27 -8.5 -42.5t-40.5 -47.5q-1 -1 -12 -13t-26 -26.5t-40 -34.5q-15 -12 -15 -15q0 -2 15 -4z" />
    <glyph glyph-name="bracketleft" unicode="[" horiz-adv-x="326" 
d="M432 807q3 0 19 0.5t23 0.5q88 0 94 -25q1 -2 4 -6t3 -13q0 -8 -7 -22t-14 -19q-10 -7 -34 -7q-9 0 -26.5 1t-24.5 1q-38 0 -47 -4t-19 -27q-43 -101 -132 -378t-114 -349q-13 -37 -13 -55q0 -7 3.5 -8.5t15.5 -1.5t43 2t43 2q46 0 46 -38q0 -23 -11 -37q-17 -21 -61 -21
h-33q-56 0 -94 3q-32 3 -53.5 33t-21.5 47q0 25 21 88l218 657q23 69 36.5 102t35 51.5t39 20.5t61.5 2z" />
    <glyph glyph-name="backslash" unicode="\" horiz-adv-x="374" 
d="M265 680q14 -13 14 -37q0 -11 -4 -31.5t-4 -27.5q0 -36 4 -67q8 -61 33.5 -219.5t37.5 -247.5q7 -55 7 -87q0 -19 -2 -25t-10 -6q-2 0 -14 -5.5t-23 -5.5q-9 0 -22 5q-20 8 -27.5 30t-7.5 38q0 24 -5 60l-75 508q-4 27 -4 70q0 25 2 31q4 12 6.5 17.5t11 10.5t22.5 5
q6 0 11 -0.5t7 -0.5q24 0 42 -15z" />
    <glyph glyph-name="bracketright" unicode="]" horiz-adv-x="326" 
d="M304 704q0 11 -30 11q-13 0 -39.5 -1.5t-36.5 -1.5q-44 0 -44 39q0 37 30 50q13 6 66 6q45 0 102 -3q26 0 52 -32q23 -28 23 -59q0 -16 -20 -76l-219 -656q-31 -93 -50 -126.5t-41 -41.5q-27 -10 -117 -10q-97 0 -100 24q0 3 -3.5 9t-3.5 10q0 9 7 23t14 19q8 7 34 7
q9 0 27 -1t25 -1q37 0 47 4t19 26q45 103 138.5 394.5t107.5 333.5q12 35 12 53z" />
    <glyph glyph-name="asciicircum" unicode="^" horiz-adv-x="550" 
d="M439 587q-3 5 -6 5t-8 -3q-135 -81 -154 -98q-6 -7 -16 -7q-24 0 -45 25q-10 13 -10 28q0 9 2 15.5t5 11.5t3 6q3 8 51 32l171 84q12 6 25 6q27 0 41 -21q2 -2 7 -7.5t7 -9.5l85 -186q10 -20 10 -27q0 -11 -10 -15l-11 -10q-10 -11 -21 -11t-24.5 7.5t-20.5 21.5z" />
    <glyph glyph-name="underscore" unicode="_" horiz-adv-x="626" 
d="M-119 -96h700v-64h-700v64z" />
    <glyph glyph-name="grave" unicode="`" 
d="M356 838q9 -8 47 -35l85 -59q29 -20 29 -30q0 -3 -3 -14t-3 -17q0 -7 -7.5 -12t-15.5 -5q-23 0 -43 14l-100 64q-26 16 -50 26q-9 4 -14 10.5t-5.5 12t-0.5 17.5q0 13 12 29.5t30 16.5q7 0 13 -3l7 -3q4 0 19 -12z" />
    <glyph glyph-name="a" unicode="a" horiz-adv-x="468" 
d="M320 124q-2 0 -11 -9l-42 -40q-43 -41 -81 -60t-60 -19q-14 0 -33 12q-18 12 -49 37q-26 21 -26 58q0 53 54.5 142.5t148.5 157.5q79 56 159 78q15 4 27 4q40 0 74 -34q11 -11 17 -23q4 -8 17 -11q36 -9 36 -27q0 -9 -4 -14q-93 -122 -114 -205q-13 -52 -13 -84
q0 -44 19 -72q3 -5 3 -10q0 -16 -27 -19q-3 0 -9.5 -2t-12.5 -2q-18 0 -35 8t-23 20q-15 31 -15 69q0 13 0.5 22.5t1 14t0.5 5.5q0 3 -2 3zM423 407q-8 0 -20 -7q-141 -73 -219 -168q0 -1 -7 -10.5t-14.5 -20t-17 -26t-17 -29t-12.5 -27.5t-5 -23q0 -14 6 -14q14 0 39 24
q24 23 83.5 72.5t98 89.5t60.5 82q11 19 28 36q6 6 6 12q0 9 -9 9z" />
    <glyph glyph-name="b" unicode="b" horiz-adv-x="386" 
d="M180 101q41 52 61 93.5t36 102.5q4 15 4 35q0 16 -8 34t-8 34q0 11 12 31.5t25 20.5q10 0 21 -8q13 -10 25 -26q20 -26 37 -26q42 0 143 26q28 7 35 7q4 0 9 -1t7 -1q13 0 26 -12.5t13 -27.5t-14 -18q-20 -3 -89 -27t-104 -24q-5 0 -14.5 1t-12.5 1q-5 0 -5 -4
q0 -2 0.5 -9t0.5 -10q0 -7 -3 -17.5t-4 -18.5q-3 -19 -10 -36.5t-17.5 -38.5t-14.5 -31q-6 -15 -19 -36.5t-34.5 -49t-51.5 -46.5t-61 -19q-20 0 -35 6q-59 22 -69 58q-7 25 -7 54q0 69 52 191q15 37 34 75.5t33 66.5t38.5 72t36.5 65t42.5 73t40.5 70q26 44 65 44
q20 0 40 -7q13 -5 19 -11.5t7 -10.5t2 -13q0 -19 -24 -41.5t-30 -32.5q-17 -27 -52.5 -80.5t-60 -93.5t-37.5 -71q-10 -24 -33 -72t-36 -77.5t-24.5 -73t-11.5 -82.5q0 -24 5 -24q8 0 20 16z" />
    <glyph glyph-name="c" unicode="c" horiz-adv-x="346" 
d="M295 360q13 24 13 26q0 3 -4 3q-1 0 -21.5 -24.5t-49 -64.5t-46.5 -71q-15 -27 -36 -74.5t-21 -72.5q0 -7 1.5 -9t8.5 -2q40 0 121 60q89 67 126 67q22 0 41 -20q9 -10 9 -18q0 -2 -1.5 -5t-1.5 -4q0 -9 -11 -13q-27 -9 -107 -74q-91 -74 -152 -74q-42 0 -76.5 21.5
t-41.5 34.5q-11 22 -11 47q0 30 17 75q1 2 4 16t7 23q12 26 35 67.5t65.5 100.5t78.5 84q24 17 49 17q33 0 75.5 -19t47.5 -37q3 -10 3 -19q0 -7 -17 -48t-17 -55q0 -9 -7.5 -15t-18.5 -6q-20 0 -37 13l-23 18q-11 10 -11 22q0 14 9 30z" />
    <glyph glyph-name="d" unicode="d" horiz-adv-x="496" 
d="M407 423q56 60 125 179t101 164q10 14 30 14q22 0 43 -14.5t21 -29.5q0 -30 -19 -56q-5 -6 -11.5 -20t-11.5 -22q-10 -16 -56.5 -87t-71 -113.5t-36.5 -77.5l-15 -43q-74 -211 -74 -271q0 -21 4 -38l4 -16q0 -11 -19 -26q-10 -8 -23 -8q-18 0 -37.5 10t-21.5 18
q-5 24 -5 57q0 62 27 141q8 24 8 27q0 2 -2 2t-21 -23q-101 -128 -196 -183q-14 -8 -36 -8q-19 0 -50 14t-37 23q-16 27 -16 60q0 40 34 104q9 17 27 43.5t48 62.5t63 66.5t73.5 51.5t76.5 21q28 0 41 -7q10 -5 18.5 -8.5t14.5 -6.5zM363 367q0 5 -6 5t-18 -5
q-68 -36 -125 -98.5t-94 -142.5q-8 -17 -8 -26q0 -5 3 -5q5 0 11 5q94 75 218 237q3 4 8 9.5t8 10t3 10.5z" />
    <glyph glyph-name="e" unicode="e" horiz-adv-x="366" 
d="M411 98q-50 -46 -148 -102q-19 -11 -44 -11q-38 0 -109 37q-35 18 -54 73q-13 37 -13 70q0 20 6 41q35 123 169 266q45 47 114 47q34 0 67 -12q40 -14 40 -67q0 -28 -16.5 -63.5t-36.5 -59.5q-114 -140 -222 -205q-11 -7 -11 -12t6 -15.5t12 -13.5q10 -5 19 -5
q8 0 18 2.5t20 7.5t16.5 8.5t15 9t9.5 5.5q33 19 82.5 62t73.5 57q13 8 26 8q15 0 26 -9t11 -20q0 -22 -7 -29q-12 -10 -34 -33.5t-36 -36.5zM331 429q0 6 -5 6q-11 0 -42 -31q-75 -75 -111 -150q-11 -23 -11 -28q0 -3 3 -3q4 0 17 12q69 63 112 121q8 11 12.5 21t9.5 18
q15 24 15 34z" />
    <glyph glyph-name="f" unicode="f" horiz-adv-x="268" 
d="M436 418q22 0 35.5 -9t13.5 -20q0 -17 -38 -32q-13 -5 -40.5 -18t-49 -21.5t-40.5 -11.5q-7 -1 -21 -8q-4 -2 -22.5 -8t-31.5 -13t-16 -16q-4 -12 -25.5 -73.5t-28.5 -86t-21.5 -73.5t-21.5 -90t-10 -83q-2 -21 -31 -32q-31 -11 -40 -11q-15 0 -29 12q-16 12 -16 45
q0 27 15.5 73t21.5 76q5 28 43 141q34 102 34 117q0 8 -21 29.5t-25 34.5q-5 17 -5 25q0 24 23 24q7 0 18 -3q30 -11 38 -11q9 0 12 10q100 239 158 332q6 10 23 17.5t36 7.5q23 0 40.5 -14.5t17.5 -32.5q0 -12 -14 -29t-15 -27t-5 -19q-11 -24 -54 -78.5t-52 -88.5
q-4 -15 -11 -31q-2 -6 -7.5 -17t-9 -18.5t-3.5 -9.5q0 -4 3 -4q20 0 77 24q51 21 95 21z" />
    <glyph glyph-name="g" unicode="g" horiz-adv-x="422" 
d="M205 87q-16 -16 -41.5 -29.5t-49.5 -13.5q-20 0 -34 7q-20 10 -44 30t-27 31q-3 12 -3 22q0 44 38 107q31 50 88 113q83 89 153 116q29 11 53 11q31 0 62.5 -16t43.5 -33q10 -14 10 -42q0 -25 -6 -35q-60 -105 -106 -198q-9 -18 -9 -21q0 -2 1 -2q3 0 20 14q54 44 115 80
q19 11 31 11q22 0 35 -11t13 -23q0 -13 -9 -21q-144 -106 -217 -181t-109 -159q-12 -29 -32.5 -76.5t-32.5 -76.5t-17 -38q-15 -28 -32 -37t-52 -9q-20 0 -39.5 11t-24.5 27q-2 6 -2 17q0 46 66 139q27 39 87 123q26 36 80 150q9 19 9 25q0 2 -1 2q-3 0 -17 -14zM116 141
q4 0 18 10q109 75 219 231q9 13 9 16q0 9 -11 9q-9 0 -37 -20q-6 -4 -19 -11.5t-22 -16.5q-44 -41 -90.5 -99t-63.5 -100q-5 -12 -5 -16q0 -3 2 -3z" />
    <glyph glyph-name="h" unicode="h" horiz-adv-x="418" 
d="M287 229q-15 -20 -67.5 -97t-77.5 -107q-22 -26 -57 -26q-8 0 -17 3q-56 19 -56 46q0 5 4.5 13.5t5.5 12.5q10 46 30 100.5t36 90t49.5 104.5t47.5 99q27 59 38 78q88 155 129 237q8 17 33 17q10 0 21 -2q30 -5 44 -20q11 -13 11 -27q0 -23 -30 -58q-15 -17 -37 -47
q-64 -87 -194 -367q-8 -17 -12 -26q-9 -19 -9 -24q0 -2 1 -2q5 0 12 10q92 129 162 199q24 24 29 25q20 6 29 6q24 0 46 -9q22 -8 22 -32q0 -23 -29 -74q-6 -11 -26 -59q-50 -123 -50 -210q0 -57 26 -60q29 -4 29 -17q0 -6 -5 -16q-4 -8 -23.5 -17t-35.5 -9q-20 0 -40 8
q-56 23 -56 101q0 74 31 156q4 11 4 14t-2 3q-4 0 -16 -17z" />
    <glyph glyph-name="i" unicode="i" horiz-adv-x="220" 
d="M207 109q2 1 7.5 5t9.5 6.5t10 5.5t12.5 4.5t13.5 1.5q47 0 47 -29q0 -16 -16 -31l-41 -38q-54 -48 -101 -48q-39 0 -67 32q-37 42 -37 96q0 35 16 81q3 8 8.5 24.5t8.5 24.5q80 185 95 217q14 30 57 30q29 0 46 -12q11 -7 11 -25t-13.5 -42.5t-30.5 -48t-20 -30.5
q-32 -74 -58 -139q-23 -58 -23 -97q0 -20 8 -20q12 0 57 32zM317 704q39 0 58 -19q13 -13 13 -35q0 -15 -6 -21q-1 -1 -10.5 -12t-17 -17.5t-19.5 -13.5t-23 -7q-21 0 -36 9t-20 18q-8 15 -8 36q0 27 13 43q16 19 56 19z" />
    <glyph glyph-name="j" unicode="j" horiz-adv-x="238" 
d="M206 233q34 31 59 47q23 13 36 13q36 0 36 -22q0 -23 -13 -35q-2 -2 -33 -29q-81 -70 -180 -210q-19 -26 -32 -56q-19 -49 -54 -144.5t-57 -151.5q-16 -39 -48 -39q-3 0 -36 9q-36 10 -36 51q0 12 5 27q21 54 84 176.5t83 192.5q2 8 23 64q12 33 35.5 94t42 111.5
t32.5 96.5q3 10 19 24q12 10 44 10q31 0 41 -11q13 -15 13 -26q0 -4 -9 -22q-26 -54 -69 -155q-8 -19 -8 -26q0 -3 2 -3q5 0 20 14zM381 640q0 -20 -14.5 -33.5t-16.5 -19.5q-8 -25 -35 -25q-20 0 -42 11t-31 28q-9 16 -9 44q0 8 7 16q25 29 62 29q30 0 59 -24
q20 -17 20 -26z" />
    <glyph glyph-name="k" unicode="k" horiz-adv-x="376" 
d="M263 373q48 36 74.5 60.5t47.5 57.5q22 35 55 35q16 0 41 -14q23 -13 23 -23q0 -12 -16 -35.5t-29 -33.5q-9 -7 -16 -16t-12 -13q-81 -66 -157 -112q-6 -4 -6 -11q0 -3 2.5 -9t2.5 -7q1 -4 3 -10.5t6 -18t7 -21.5q4 -14 27 -60.5t29 -55.5q28 -36 59 -52q12 -6 20 -6
q20 0 20 -19q0 -13 -10 -20q-8 -6 -15 -13q-10 -10 -32 -10q-52 0 -100 48q-2 2 -7 5.5t-9 8t-8 11.5q-45 81 -73 162q-6 17 -9 17q-4 0 -11 -20q-22 -62 -33 -112q-1 -3 -4 -21.5t-7 -30.5q-11 -34 -34 -34q-5 0 -14 -1.5t-14 -1.5q-19 0 -32 11q-16 11 -16 31q0 13 10 44
q30 91 68 185.5t97.5 230t79.5 183.5q5 11 8.5 21.5t4.5 12.5q4 9 8 11.5t15 2.5q10 0 34 -3q51 -7 51 -41q0 -25 -22 -56q-22 -30 -33 -49q-16 -27 -31.5 -60t-33 -75t-27.5 -64q-8 -17 -8 -21q0 -2 2 -2q5 0 24 14z" />
    <glyph glyph-name="l" unicode="l" horiz-adv-x="232" 
d="M142 61q4 0 8 3q21 14 48.5 43.5t49.5 48t45 18.5q15 0 32.5 -8.5t17.5 -23.5q0 -5 -2 -9.5t-3.5 -6.5t-7 -7t-6.5 -6q-2 -3 -24 -29.5t-40 -46t-47.5 -37.5t-55.5 -18q-6 0 -18 2q-52 11 -83 44q-24 25 -24 67q0 13 2 28t3.5 23.5t8 27.5t8 22.5t10.5 27.5l9 23
q58 146 205 395q1 2 10.5 28t23 42.5t34.5 16.5q7 0 18 0.5t16 0.5q34 0 42 -17q9 -20 9 -31q0 -19 -11 -36q-23 -36 -67.5 -103.5t-71 -109t-58.5 -101t-53 -113.5q-3 -8 -12.5 -30t-13 -32.5t-7.5 -31t-4 -42.5t9 -22z" />
    <glyph glyph-name="m" unicode="m" horiz-adv-x="684" 
d="M141 96q68 41 123.5 109.5t86.5 144.5q6 16 21 27q21 16 47 16q34 0 60 -26q6 -6 6 -13q0 -4 -4 -14q-10 -26 -42 -70t-42 -64q-43 -83 -43 -117q0 -8 3 -8t11 5q16 9 28 23q23 27 70 70.5t79.5 81.5t47.5 79q14 41 56 41q10 0 17 -2q4 -1 10.5 -4t10.5 -4q19 -2 26.5 -7
t14.5 -18q5 -10 5 -16q0 -11 -16.5 -24.5t-19.5 -19.5q-68 -112 -68 -178q0 -50 29 -93q5 -8 10 -11q15 -10 15 -21q0 -22 -33 -22q-4 0 -43 8q-32 6 -57 63q-12 26 -16 52q-3 21 -7 21q-3 0 -19 -17q-23 -24 -39 -38.5t-47.5 -31.5t-62.5 -17q-29 0 -58 14q-39 19 -47 38
q-3 7 -5 7q-4 0 -11 -7q-18 -14 -35 -26q-47 -31 -66 -31q-34 0 -67 14.5t-39 35.5q-6 22 -6 49q0 40 15.5 79t43.5 87.5t40 75.5q10 23 26.5 51t24.5 52q6 17 26.5 25.5t44.5 8.5q44 0 49 -22q0 -35 -11 -50q-53 -74 -86 -133t-65 -143q-11 -29 -11 -35q0 -3 3 -3t16 8z
" />
    <glyph glyph-name="n" unicode="n" horiz-adv-x="420" 
d="M134 115q62 89 130 160q47 49 60.5 64.5t19.5 28.5q12 28 19 37t22 9q12 0 23.5 -4.5t14.5 -4.5q18 -2 26.5 -14t8.5 -23q0 -8 -10 -26q-48 -79 -68 -145q-12 -38 -12 -88q0 -13 7 -40q3 -12 31 -31q18 -12 18 -31q0 -10 -8.5 -17.5t-24.5 -7.5q-48 0 -66 18
q-6 6 -21 17.5t-20 18.5q-17 25 -17 68q0 4 0.5 14t0.5 12q0 4 -2 4q-3 0 -14 -16l-52 -72q-10 -14 -22.5 -24t-17.5 -15q-12 -14 -37 -14q-18 0 -32 8q-45 24 -61 45q-9 11 -9 29q0 12 5 33.5t6 28.5q2 21 49 133q43 103 96 182l6 10q6 9 10 13q13 11 45 11q40 0 51 -23
q5 -10 5 -23q0 -18 -26 -48q-37 -40 -68 -99q-25 -46 -66 -153q-12 -32 -12 -34t1 -2q3 0 11 11z" />
    <glyph glyph-name="o" unicode="o" horiz-adv-x="368" 
d="M354 455q11 -30 19 -38t25 -8q5 0 29 1.5t45 1.5q34 0 56 -11t22 -24q0 -11 -18 -18q-6 -2 -12.5 -6.5t-14.5 -6.5q-12 -2 -35.5 -8.5t-37.5 -8.5t-37 -2q-6 0 -9 -11q-42 -170 -122 -258q-1 -1 -6 -6.5t-8 -8.5l-9.5 -9.5t-12 -11t-13.5 -9.5t-15 -8.5t-16 -5.5t-18 -2
q-17 0 -33 8q-67 33 -80 67q-15 38 -15 82q0 93 86 222q4 6 12.5 15.5t11.5 13.5q66 94 123 94q40 0 68 -24q11 -10 15 -20zM270 403q-8 0 -17 -12q-47 -61 -85 -133.5t-38 -124.5q0 -15 5 -29q8 -21 16 -21q11 0 25 21q29 44 41 63.5t32 57t28 70t8 67.5q0 25 -4 28
q-6 5 -8 10q-1 3 -3 3z" />
    <glyph glyph-name="p" unicode="p" horiz-adv-x="440" 
d="M162 94q-4 0 -18 -27q-68 -137 -109 -300q-1 -4 -1.5 -17.5t-2.5 -17.5q-2 -5 -21 -10.5t-27 -5.5q-34 0 -45 19q-2 4 -6.5 9.5t-6 10t-1.5 11.5q0 6 4 19q14 48 104 292.5t115 381.5q1 7 3 11t9 9t20 10q11 4 25 4q20 0 35 -8t15 -20q0 -18 -12 -66q-4 -17 -4 -21t2 -4
q3 0 14 12q46 50 82 71q13 7 29 7q31 0 88 -38q26 -17 26 -58q0 -23 -8 -50q0 -2 -0.5 -15.5t-4.5 -22.5q-4 -10 -16 -43.5t-18 -48.5t-19.5 -44.5t-24.5 -47t-28 -39.5t-36 -39q-10 -9 -30 -9q-70 0 -118 71q-9 14 -14 14zM343 349q-66 -58 -114 -136q-6 -10 -6 -24
q0 -41 27 -80q6 -9 11 -9t11 7q30 36 61 123q25 77 31 109q4 19 4 22q0 4 -2 4q-4 0 -23 -16z" />
    <glyph glyph-name="q" unicode="q" horiz-adv-x="386" 
d="M144 38q-10 -3 -23 -3q-30 0 -54 15l-14 9q-37 24 -37 71q0 24 9 46q37 98 116.5 178t170.5 108q25 8 49 8q37 0 66.5 -17.5t29.5 -47.5q0 -7 -3 -16t-5 -13t-10 -16t-8 -13q-3 -5 -3 -10q0 -7 4 -11.5t4 -9.5q0 -6 -7 -15q-166 -220 -275 -592q0 -1 -1.5 -25t-8.5 -42
q-12 -35 -34 -35q-32 0 -68 25q-7 5 -7 17q0 7 12 54q18 70 55 177l14 42q5 22 11 37t13.5 31.5l12.5 27.5q6 15 6 19q0 3 -3 3q-4 0 -12 -2zM340 384q-6 -4 -13.5 -6t-13.5 -6q-63 -39 -121 -101.5t-76 -120.5q-7 -20 -7 -34q0 -7 6 -7q5 0 29 15q39 24 78.5 68.5
t61.5 77.5q6 8 6 13q0 1 -2.5 4.5t-2.5 8.5q0 7 23 32t32 37q10 14 10 20q0 2 -2 2q-4 0 -8 -3z" />
    <glyph glyph-name="r" unicode="r" horiz-adv-x="300" 
d="M228 353q2 0 10 6q87 65 127 65q57 0 87 -34q8 -9 8 -21q0 -14 -11.5 -30.5t-34.5 -16.5q-6 0 -21.5 4.5t-20.5 4.5q-13 0 -71 -37q-150 -96 -184 -251q-6 -26 -27 -44q-9 -8 -22 -8q-21 0 -45 27q-19 21 -19 40q0 22 24 57t28 47q40 114 60 190q10 37 10 50q0 4 -4.5 11
t-4.5 12q0 11 16 19t36 8q15 0 27.5 -5.5t15.5 -10.5q16 -27 16 -54q0 -7 -0.5 -13t-1.5 -9v-4q0 -3 2 -3z" />
    <glyph glyph-name="s" unicode="s" horiz-adv-x="296" 
d="M258 421q-17 -20 -28 -41q-15 -27 -15 -58q0 -47 20 -171q17 -106 17 -126q0 -16 -25.5 -36.5t-57.5 -20.5q-15 0 -29 6q-93 38 -150 137q-7 12 -7 18q0 12 13.5 26t35.5 14q16 0 25 -4q18 -9 24 -16q6 -8 22.5 -38t29.5 -44q11 -12 13 -12t2 3q0 4 -13 77
q-23 126 -23 180q0 23 9.5 59.5t26.5 62.5q20 31 47 48.5t48 17.5q73 0 112 -42q21 -22 21 -67q0 -47 -29 -84q-10 -13 -22 -13q-28 0 -49 17q-17 14 -17 33q0 9 3 13q17 31 17 48q0 9 -3 15q-4 7 -7 7t-11 -9z" />
    <glyph glyph-name="t" unicode="t" horiz-adv-x="262" 
d="M264 381q-3 -7 -3 -11q0 -2 2 -2t10 2q77 18 119 46q8 5 18 5q19 0 42 -11t23 -24q0 -25 -35 -40q-14 -6 -25.5 -12t-19.5 -9q-24 -9 -76.5 -23t-74.5 -22q-12 -4 -18.5 -15.5t-13.5 -39.5q-2 -9 -6.5 -19t-5.5 -16q-2 -13 -22 -74.5t-23 -88.5q-6 -49 -47 -49
q-26 0 -49 15q-15 10 -15 34q0 13 4 25q9 28 31 104.5t37 113.5q6 15 6 18t-8 8q-15 9 -30.5 29.5t-26.5 28.5q-9 8 -9 15q0 10 13.5 17t32.5 7q12 0 19 -2t15.5 -5.5t14.5 -5.5t9 -2q7 0 10 10q7 23 16 46q2 4 32.5 84.5t49.5 122.5q7 15 20 17q3 1 11.5 3t13.5 2
q24 0 49 -9q18 -7 18 -16q0 -6 -4 -24q-7 -32 -23 -68.5t-38 -76t-28 -53.5q-9 -20 -15 -35z" />
    <glyph glyph-name="u" unicode="u" horiz-adv-x="420" 
d="M251 50q-64 -68 -99 -68q-36 0 -72 22q-26 16 -32.5 32.5t-6.5 46.5q0 35 23 113q4 13 8.5 33t7.5 29q6 17 17.5 55.5t23.5 69.5t28 59q17 30 50 30q14 0 30 -7t21 -17q11 -25 11 -27q0 -17 -21 -32q-20 -14 -27 -43q-8 -33 -38 -124t-36 -131q-2 -14 -2 -18q0 -5 2 -5
q5 0 16 11q18 18 28.5 32t15.5 19q105 112 146 219q6 15 20 23t25 8q8 0 14.5 -2.5t13 -6t8.5 -4.5q29 -11 29 -29q0 -14 -6 -26q-57 -113 -72 -221q-6 -43 -6 -57q0 -25 9 -47q10 -25 10 -35q0 -24 -28 -24q-24 0 -52 19q-5 4 -12 6.5t-9.5 5.5t-6.5 12q-10 24 -10 57
q0 6 0.5 15t1 15.5t0.5 7.5q0 3 -3 3q-2 0 -20 -19z" />
    <glyph glyph-name="v" unicode="v" horiz-adv-x="378" 
d="M164 88q4 0 14 14q53 71 89 160q23 57 23 90q0 17 -9 26q-16 16 -16 33q0 27 39 27q49 0 69 -33q15 -25 32 -25q11 0 26 5q7 2 26.5 10.5t36 13t33.5 4.5q29 0 59 -17q19 -11 19 -25q0 -8 -11 -14q-30 -17 -109 -39q-16 -4 -22 -7q-13 -6 -31 -6q-10 0 -22 2.5t-16 2.5
t-7 -2t-10 -29q-32 -119 -130 -240q-8 -10 -38 -40q-19 -19 -45 -19q-13 0 -22 4t-21 14t-17 13q-23 15 -29.5 22.5t-10.5 21.5q-4 13 -4 32q0 17 10 53q2 6 6.5 28t10.5 46q43 179 51 235q4 27 38 27q2 0 9.5 -1t10.5 -1q26 0 39 -13q9 -9 9 -29q0 -18 -15.5 -61t-16.5 -46
q-8 -44 -25.5 -119.5t-21.5 -92.5q-3 -14 -3 -22q0 -3 2 -3z" />
    <glyph glyph-name="w" unicode="w" horiz-adv-x="540" 
d="M227 79q-1 0 -3.5 -3t-10 -12.5t-18.5 -20.5q-28 -28 -56 -28q-13 0 -30 9q-8 4 -22.5 11t-19 9t-12 7t-9 9.5t-3.5 11.5t-2 17q0 6 5 27q12 50 54.5 168t51.5 181q1 5 8 12t14 9q15 5 39 5q29 0 43.5 -10t14.5 -24q0 -10 -8 -22q-1 -2 -13 -29q-30 -71 -83 -236
q-6 -19 -6 -22q0 -2 2 -2q3 0 13 14q87 117 128 212q8 18 31 18q4 0 12 -1t11 -1q20 0 35.5 -11.5t15.5 -27.5q0 -15 -34 -73q-11 -19 -19 -49q-1 -2 -8 -24.5t-12 -40t-9.5 -40.5t-4.5 -38q0 -19 6 -19q10 0 27 22q25 33 42 81t21 75t4 38q0 7 2 19.5t2 17.5q0 11 -9.5 39
t-9.5 41q0 16 12 26q11 9 49 9q7 0 14 -2.5t11.5 -6t12.5 -9.5t13 -10q17 -12 55 -12q21 0 69 6.5t61 6.5q47 0 47 -38q0 -22 -52 -35q-10 -2 -35 -10t-44 -12t-40 -4q-11 0 -23.5 1.5t-20.5 3t-10 1.5q-5 0 -5 -5q0 -1 0.5 -7t0.5 -16.5v-21.5q0 -50 -28 -127t-87 -136
q-19 -19 -50 -19q-41 0 -97 32q-20 11 -25.5 24t-5.5 39q0 3 -2 3z" />
    <glyph glyph-name="x" unicode="x" horiz-adv-x="334" 
d="M241 319q3 0 17 11q88 69 131 100q12 9 29 9q30 0 47.5 -20t17.5 -36q0 -2 -2 -4.5t-4 -3.5l-6 -3t-5 -3q-83 -48 -199 -149q-13 -11 -15.5 -16t-2.5 -19q0 -39 6 -105.5t6 -98.5q0 -42 -5 -72q-3 -13 -29 -13q-13 0 -20 1q-11 1 -15 2.5t-8.5 5t-8.5 6.5q-19 11 -23 18
t-4 23q0 23 9 45q3 7 3 11q0 2 -3 24q-4 44 -4 58q0 10 -3 10t-8 -6q-40 -47 -42 -59q-2 -10 -18.5 -23.5t-35.5 -13.5q-16 0 -27 9q-32 25 -32 42q0 11 10 23q7 7 60 65.5t77 88.5q9 11 9 31q0 19 -5.5 63.5t-14.5 65.5q-4 8 -6.5 10.5t-5 4t-5.5 4.5q-6 7 -6 15
q0 13 14 23t34 10q27 0 46.5 -15t28.5 -38t12.5 -41.5t3.5 -33.5q0 -6 2 -6z" />
    <glyph glyph-name="y" unicode="y" horiz-adv-x="436" 
d="M152 114q4 0 12 5q38 25 64 56q5 6 16.5 17.5t19.5 21.5q6 7 25.5 28t32 36.5t32 50t35.5 77.5q11 34 36 34q6 0 18 -4.5t22 -5.5q25 -2 34 -17q7 -11 7 -21q0 -22 -19 -50q-17 -24 -24 -35q-32 -51 -59 -126q-5 -15 -28.5 -79.5t-25.5 -68.5q-8 -23 -8 -26q0 -4 6 -5
q22 -6 22 -22q0 -11 -8 -22q-83 -111 -117 -276q0 -2 -3 -18t-4.5 -22t-5.5 -20.5t-8.5 -21.5t-11 -16t-15.5 -13.5t-20 -5.5q-27 -3 -35 -3q-18 0 -32 9q-18 12 -18 41q0 30 19 73q41 93 84 168q6 30 62 207q5 17 5 18q0 4 -3 4t-26 -18q-45 -36 -64 -36q-71 0 -111 46
q-9 10 -9 35q0 63 39 174q4 11 29 74.5t35 99.5q3 12 15.5 22.5t27.5 10.5q7 0 12 -1q37 -6 46 -13q14 -9 14 -28q0 -16 -11 -36q-3 -6 -12.5 -18t-12.5 -19q-15 -33 -25.5 -62t-23.5 -73.5t-20 -64.5q-13 -41 -13 -57q0 -4 3 -4z" />
    <glyph glyph-name="z" unicode="z" horiz-adv-x="384" 
d="M377 307q0 -3 14 -5q44 -7 62 -29q10 -11 10 -20q0 -18 -31 -18q-71 0 -161 -28q-22 -7 -31 -13t-35 -34q-63 -68 -67 -72q-11 -11 -11 -20q0 -8 7 -11q11 -5 20 -5q7 0 24 5q21 7 38 7q16 0 55 19t63 19q29 0 56 -23q11 -9 11 -19q0 -13 -15 -19q-3 -1 -34 -14
t-44 -17.5t-40 -13t-50.5 -12t-46.5 -3.5q-62 0 -114 30q-35 20 -35 66q0 18 4 26q4 10 11.5 20.5t12.5 16.5t17 19t15 17q14 16 14 17q0 2 -6 4q-27 9 -35 26q-12 24 -12 34t10 17t26 7q13 0 34 -7t36 -7q25 0 48.5 17t45.5 40t36 30q13 7 23.5 16.5t15 15.5t4.5 8
q0 3 -3 3t-12 -3q-15 -5 -29 -7q-50 -6 -86 -47q-5 -5 -12 -5q-21 0 -38 18.5t-17 43.5q0 29 24 35q6 2 44.5 12.5t65 15t51.5 4.5q31 0 61.5 -9t40.5 -20q2 -3 13.5 -13t13.5 -17q4 -11 4 -21q0 -14 -9.5 -27.5t-19 -21t-29.5 -21.5q-8 -5 -8 -7z" />
    <glyph glyph-name="braceleft" unicode="{" horiz-adv-x="346" 
d="M228 300q44 -7 44 -52q0 -36 -10 -66l-68 -216q-10 -32 -10 -43q0 -15 10 -24q9 -8 27 -8q5 0 15 0.5t15 0.5q28 0 39 -15q9 -12 9 -23q0 -15 -19 -34q-3 -3 -6 -8t-5.5 -7t-12.5 -3.5t-29 -1.5q-77 0 -118 32.5t-41 77.5q0 34 9 61l64 204q19 60 19 67q0 12 -5.5 14.5
t-25.5 2.5q-26 0 -37 6q-4 2 -5 3.5t-2 5t-2 5.5t-3 4l-3 3t-2 4t-1 8q0 3 6 23q6 19 16 24t43 5q37 0 55 20t40 86l72 213q25 73 69 106.5t126 33.5q71 0 71 -23q0 -3 3.5 -9.5t3.5 -10.5q0 -9 -5 -18q-6 -12 -7.5 -14.5t-8 -6.5t-14.5 -4.5t-25 -0.5q-49 0 -69 -15.5
t-36 -57.5q-24 -59 -78 -233q-9 -27 -15 -41.5t-17.5 -32.5t-30 -28t-45.5 -14z" />
    <glyph glyph-name="bar" unicode="|" horiz-adv-x="270" 
d="M412 777q12 -11 12 -25q0 -22 -27 -49q-9 -9 -25 -48q-42 -105 -133 -391t-121 -370q-19 -53 -20 -55q-9 -18 -15 -26t-10 -9.5t-11 -1.5q-29 0 -46 14q-5 4 -13.5 7.5t-12.5 7.5t-4 12q0 23 7 44q2 6 11 23t12 26l258 774q19 56 33 76t42 20q16 0 29 -5.5t16.5 -8
t17.5 -15.5z" />
    <glyph glyph-name="braceright" unicode="}" horiz-adv-x="346" 
d="M221 310q-37 9 -37 55q0 26 11 60l70 220q14 41 14 52q0 12 -8.5 16.5t-32.5 4.5q-42 0 -61 5.5t-19 25.5q0 8 3 15.5t7.5 16.5t6.5 15q4 13 66 13h27q43 0 83 -28t40 -79q0 -35 -21 -98l-57 -171q-17 -51 -17 -67q0 -10 8.5 -13t33.5 -3q28 0 39 -9q8 -7 8 -18
q0 -8 -3 -17t-10 -22l-6 -12q-7 -14 -49 -14q-17 0 -30 -5.5t-31.5 -30t-33.5 -70.5l-71 -210q-11 -32 -17 -47t-21 -37t-33.5 -32t-50.5 -18t-76 -8q-79 0 -79 28q0 12 7 26.5t9 19.5q5 17 40 17q45 0 63.5 4.5t26.5 15.5t19 42l79 238q11 33 15 43.5t13 28.5t17.5 24
t22.5 12.5t35 10.5z" />
    <glyph glyph-name="asciitilde" unicode="~" horiz-adv-x="550" 
d="M564 326q2 -5 7 -10t5 -10q0 -13 -13 -25q-84 -77 -139 -77q-33 0 -58 9.5t-38 21t-34 34.5q-25 27 -41 27q-19 0 -61 -35q-16 -14 -49 -14q-13 0 -21 4t-10.5 7.5t-5.5 13t-4 11.5q-1 3 -6 8t-5 12q0 14 12 24q22 19 65.5 41t86.5 22q37 0 63 -18q16 -11 37 -34t33 -32
q14 -11 29 -11q23 0 56 28.5t43 28.5q38 0 48 -26z" />
    <glyph glyph-name="uni0080" 
d="M325 167q-78 -30 -155 -47q-9 -2 -13 -11q-17 -45 -17 -96q0 -6 1 -16.5t1 -12.5q0 -6 -7 -10q-3 -2 -10 -8.5t-15 -10.5t-16 -4q-9 0 -19 5l-12 6q-16 8 -24 21t-9 23t-1 30q0 30 9 71q2 9 2 12q0 2 -6 6q-30 17 -30 33q0 30 15 55q6 9 18 9q13 0 32 -10q6 -3 8 -3
q3 0 9 11q150 271 274 451q11 17 44 20q2 0 10.5 2t17.5 3t17 1q26 0 40 -11q4 -3 8 -11.5t4 -11.5q0 -8 -7 -48t-7 -46q0 -14 -3 -32q-5 -29 -10 -83.5t-8 -95t-3 -46.5q0 -9 5 -9l5 1q5 0 12 1t14 1q56 0 78 -25q8 -9 8 -16q0 -6 -5 -13q-22 -29 -70 -29q-36 0 -48 -12
q-4 -4 -6 -22q-6 -66 -6 -163q0 -27 5 -47t9.5 -30t4.5 -12q0 -14 -12 -26t-26 -12q-44 0 -66 22q-8 8 -14 46.5t-6 75.5q0 24 2.5 71t2.5 50q0 9 -3 9q-8 0 -22 -6zM369 521q-84 -141 -154 -281q-7 -14 -7 -17t5 -3q18 0 68 19l64 24q8 3 8 12q0 8 14 123t14 122
q0 12 -2 12q-3 0 -10 -11zM401 828q11 -19 11 -35q0 -13 -10.5 -29t-10.5 -19q-1 -6 -15.5 -13.5t-32.5 -7.5q-29 0 -43 21q-11 16 -11 24q0 10 1 18q3 25 13 41q12 20 44 20q42 0 54 -20zM558 809q17 0 34.5 -7.5t20.5 -19.5q1 -5 6.5 -17.5t5.5 -21.5q0 -10 -10.5 -26.5
t-19.5 -21.5q-10 -5 -30 -5q-37 0 -44 21q-1 4 -11 18t-10 28t10 33.5t29 19.5q1 0 8 -0.5t11 -0.5z" />
    <glyph glyph-name="uni0081" 
d="M468 874q39 0 66.5 -19.5t29.5 -34.5q2 -16 2 -26q0 -48 -24.5 -81t-65.5 -33q-47 0 -75 17q-40 24 -40 61q0 25 21 63t44 47q15 6 42 6zM479 815q-1 3 -3 3t-7 -7q-21 -29 -21 -54q0 -22 8 -22q1 0 5 5q23 32 23 51q0 14 -5 24zM325 167q-78 -30 -155 -47q-9 -2 -13 -11
q-17 -45 -17 -96q0 -6 1 -16.5t1 -12.5q0 -6 -7 -10q-3 -2 -10 -8.5t-15 -10.5t-16 -4q-9 0 -19 5l-12 6q-16 8 -24 21t-9 23t-1 30q0 30 9 71q2 9 2 12q0 2 -6 6q-30 17 -30 33q0 30 15 55q6 9 18 9q13 0 32 -10q6 -3 8 -3q4 0 10 11q90 162 267 420q11 17 44 20
q3 0 20 3.5t29 3.5q29 -2 42 -12q3 -2 7.5 -10.5t4.5 -11.5q0 -8 -7 -48.5t-7 -45.5q-1 -14 -4 -31q-5 -29 -10 -77t-7.5 -81t-2.5 -38q0 -9 5 -9l5 1q5 0 12 1t14 1q56 0 78 -25q8 -9 8 -16q0 -6 -5 -13q-22 -29 -70 -29q-36 0 -48 -12q-4 -4 -6 -22q-6 -66 -6 -163
q0 -27 5 -47t9.5 -30t4.5 -12q0 -14 -12 -26t-26 -12q-44 0 -66 22q-8 8 -14 46.5t-6 75.5q0 24 2.5 71t2.5 50q0 9 -3 9q-8 0 -22 -6zM368 496q-19 -32 -46 -74.5t-51 -82.5t-54 -97q-9 -17 -9 -19q0 -3 5 -3q18 0 68 19l64 24q9 3 9 12q0 5 13 111t13 109q0 12 -2 12
q-3 0 -10 -11z" />
    <glyph glyph-name="uni0082" horiz-adv-x="472" 
d="M240 -53q0 -26 -17 -51q-20 -29 -41.5 -45.5t-57.5 -16.5q-31 0 -65 13q-35 13 -49 30.5t-14 29.5q0 16 10.5 23.5t18.5 7.5q4 0 6.5 -1t6 -2t6.5 -2q26 -7 29 -22q2 -10 18 -10q20 0 39.5 29.5t19.5 46.5q0 11 -11 18q-71 42 -79 79q-6 28 -6 61q0 60 14 99
q111 312 301 421q33 19 87 19q26 0 49 -9q11 -5 16 -8t9.5 -9t8.5 -10q39 -35 39 -61q0 -13 -17 -51q-19 -42 -27 -65t-39 -23q-4 0 -18 2q-28 5 -43 17q-17 13 -17 29q0 14 17 38.5t18 35.5q1 6 7 18q5 10 5 12q0 3 -4 3q-3 0 -11.5 -3t-23.5 -11.5t-29 -21.5
q-28 -27 -44.5 -46.5t-64.5 -84.5q-77 -104 -124 -265q-4 -16 -4 -44q0 -31 11 -42q22 -22 34 -22q17 0 45 14q27 14 58 39t56.5 50t29.5 28q15 12 48 12q35 0 51 -26q7 -11 7 -19q0 -3 -1.5 -5t-5.5 -5t-7 -6q-5 -5 -27.5 -28.5t-37 -38t-39.5 -34t-49 -32.5
q-38 -21 -85 -26q-10 -1 -10 -6l1 -9q2 -9 2 -14z" />
    <glyph glyph-name="uni0083" horiz-adv-x="508" 
d="M332 416q47 18 92 18q51 0 89 -23q20 -12 20 -37q0 -11 -22 -17.5t-34 -6.5q-6 0 -17 1.5t-15 1.5q-27 0 -53 -6.5t-57.5 -19t-50.5 -17.5q-27 -7 -31 -18q0 -1 -22.5 -51.5t-35.5 -89.5t-13 -66q0 -29 12 -29q28 0 69 18q17 8 38 16t27 11q9 4 42 24t65 34.5t56 14.5
q8 0 14 -2q7 -2 15 -10q3 -3 12.5 -9.5t15 -12.5t5.5 -13q0 -9 -12 -14q-13 -5 -19 -11q-15 -15 -27 -21q-62 -33 -94 -48.5t-98.5 -34t-132.5 -18.5q-14 0 -45.5 14t-45.5 34q-10 14 -10 45q0 48 23 123q5 16 11.5 33.5t15 38.5t12.5 33q-13 15 -13 34q0 8 4.5 13.5
t19.5 9.5q14 4 18 7t9 15q20 46 33 82q5 14 5 17q0 4 -3 4q-1 0 -3.5 -0.5t-7 -1t-9.5 -0.5q-16 0 -32 13q-24 20 -24 46q0 11 11 14q41 11 177 60q45 16 125 34t138 18q36 0 52 -8q24 -12 39.5 -28.5t15.5 -31.5q0 -19 -21 -20q-8 -1 -16 -4t-11 -3q-4 0 -21 6.5t-35 6.5
q-63 0 -220 -47q-8 -2 -11 -11q-14 -38 -32 -84q-11 -28 -11 -31q0 -2 2 -2q3 0 22 7zM341 726l53 36q65 45 76 65q6 11 31 11q12 0 25 -7t19 -31q3 -13 3 -17q0 -14 -13 -26.5t-55 -37.5l-91 -55q-13 -8 -23 -8q-2 0 -6 -1t-6 -1q-14 0 -32 12.5t-18 17.5q0 11 3 18
q1 3 6 7t7 4q4 0 21 13z" />
    <glyph glyph-name="uni0084" horiz-adv-x="598" 
d="M482 4q-27 -27 -53 -27q-24 0 -47 13q-30 17 -39 27.5t-18 37.5t-18 71t-14 76.5t-13.5 90t-10.5 73.5q-5 31 -8 31q-4 0 -13 -31q-56 -187 -70 -254q-14 -65 -14 -95q0 -46 -46 -46q-14 0 -23 2q-7 1 -28 13t-21 22q0 16 14 68q15 57 52 179.5t42 142.5l7 26
q27 91 42 167q2 8 11 11.5t9 6.5q0 1 -8.5 19t-8.5 28q0 15 15 22q23 10 56 10q22 0 31 -9q6 -7 9 -14q33 -99 53.5 -278t35.5 -244q5 -23 8 -23t13 24q15 36 31 81.5t24 71.5t27 88.5t23 77.5q3 10 9 27t9 27q4 17 8 52.5t9 53.5q5 16 9.5 20.5t16.5 4.5q13 0 29 -4
q5 -1 14 -2.5t14.5 -3t10.5 -5.5q28 -22 28 -41q0 -10 -11 -32q-4 -8 -14 -38q-12 -37 -42 -132t-59.5 -182t-65.5 -176q-9 -22 -15 -28zM427 738q-8 13 -17 13q-11 0 -33 -14q-7 -4 -20 -4q-17 0 -32 6.5t-15 17.5q0 4 -4 17.5t-4 19.5q0 12 12 17l62 23q29 10 46 10
q33 0 67 -48q16 -23 30 -23q11 0 30 8q23 10 46 10q28 0 33 -25q1 -4 3 -11t2 -10q0 -8 -11 -15q-2 -1 -11.5 -7.5t-15.5 -10.5t-17 -10t-20 -9.5t-21 -6t-23 -2.5q-34 0 -61 22q-10 8 -26 32z" />
    <glyph glyph-name="uni0085" unicode="&#x85;" horiz-adv-x="490" 
d="M368 536q-6 0 -24 -19q-102 -108 -143 -241q-17 -55 -17 -127q0 -45 19 -73q13 -20 31 -20q35 0 58 34q42 64 83 171.5t41 185.5q0 71 -34 81q-6 2 -9.5 5t-4.5 3zM456 598q72 -64 72 -171q0 -35 -10 -77q-50 -209 -131 -312q-18 -23 -57 -43t-86 -20q-35 0 -68 11
q-16 5 -34.5 20.5t-29.5 31.5q-33 48 -33 115q0 97 30 177.5t89 168.5q47 70 84 98q47 36 66 36q12 0 31 -8q29 -12 43 -14q23 -3 34 -13zM381 787q11 -19 11 -35q0 -13 -10.5 -29t-10.5 -19q-1 -6 -15.5 -13.5t-32.5 -7.5q-29 0 -43 21q-11 16 -11 24q0 10 1 18q3 25 13 41
q13 22 44 22q14 0 31 -6t23 -16zM519 750q17 0 34.5 -7.5t20.5 -19.5q1 -5 6.5 -17.5t5.5 -21.5q0 -10 -10.5 -26.5t-19.5 -21.5q-10 -5 -30 -5q-36 0 -44 21q-1 4 -11 18t-10 28t10 33.5t29 19.5q1 0 8 -0.5t11 -0.5z" />
    <glyph glyph-name="uni0086" horiz-adv-x="600" 
d="M185 90q7 0 19 14q4 5 15 16q203 207 319 395q6 9 13 24t11 22q19 29 46 29q2 0 10.5 -1.5t13.5 -1.5q18 -2 27 -15l14 -21q6 -10 6 -17q0 -5 -1.5 -8.5t-4 -7.5t-3.5 -8q-7 -21 -28.5 -58.5t-30.5 -61.5q-70 -186 -70 -417q0 -15 -21 -15q-8 0 -13 1.5t-10 4t-8 3.5
q-7 2 -39 21q-20 12 -21 18q-1 2 -1 6q0 16 4 23q4 6 5 15q2 18 5.5 52t6.5 60.5t6 43.5t3 20q0 2 -2 2t-15 -16q-113 -136 -194 -205q-22 -19 -52 -19q-23 0 -43.5 13.5t-31.5 16.5q-30 8 -37 24q-5 12 -5 64q0 74 26 155q21 64 67 181t59 152q3 8 6 13.5t5 9t3 5.5
q15 30 36 30q7 0 11 -1t11.5 -5t15.5 -7q13 -5 21 -10.5t11.5 -12.5t4 -11.5t0.5 -14.5l-10 -25q-18 -45 -59 -133t-65.5 -154t-33.5 -130q-4 -27 -4 -52q0 -6 2 -6zM467 805q11 -19 11 -35q0 -13 -10.5 -29t-10.5 -19q-1 -6 -15.5 -13.5t-32.5 -7.5q-29 0 -43 21
q-11 16 -11 24q0 10 1 18q3 25 13 41q12 20 44 20q42 0 54 -20zM594 773q17 0 34.5 -7.5t20.5 -19.5q1 -5 6.5 -17.5t5.5 -21.5q0 -10 -10.5 -26.5t-19.5 -21.5q-10 -5 -30 -5q-37 0 -44 21q-1 4 -11 18t-10 28t10 33.5t29 19.5q1 0 8 -0.5t11 -0.5z" />
    <glyph glyph-name="uni0087" horiz-adv-x="468" 
d="M320 124q-2 0 -11 -9l-42 -40q-43 -41 -81 -60t-60 -19q-14 0 -33 12q-18 12 -49 37q-26 21 -26 58q0 53 54.5 142.5t148.5 157.5q79 56 159 78q15 4 27 4q40 0 74 -34q11 -11 17 -23q4 -8 17 -11q36 -9 36 -27q0 -9 -4 -14q-93 -122 -114 -205q-13 -52 -13 -84
q0 -44 19 -72q3 -5 3 -10q0 -16 -27 -19q-3 0 -9.5 -2t-12.5 -2q-18 0 -35 8t-23 20q-15 31 -15 69q0 13 0.5 22.5t1 14t0.5 5.5q0 3 -2 3zM423 407q-8 0 -20 -7q-141 -73 -219 -168q0 -1 -7 -10.5t-14.5 -20t-17 -26t-17 -29t-12.5 -27.5t-5 -23q0 -14 6 -14q14 0 39 24
q24 23 83.5 72.5t98 89.5t60.5 82q11 19 28 36q6 6 6 12q0 9 -9 9zM416 605l61 24q74 30 89 43q6 6 20 6q21 0 35 -14q13 -13 13 -36q0 -15 -5 -25q-10 -17 -80 -38l-99 -30q-13 -4 -26 -4q-14 0 -22 5q-9 6 -19.5 18.5t-10.5 19.5q0 10 6 17t15 7q4 0 23 7z" />
    <glyph glyph-name="uni0088" horiz-adv-x="468" 
d="M320 124q-2 0 -11 -9l-42 -40q-43 -41 -81 -60t-60 -19q-14 0 -33 12q-18 12 -49 37q-26 21 -26 58q0 53 54.5 142.5t148.5 157.5q79 56 159 78q15 4 27 4q40 0 74 -34q11 -11 17 -23q4 -8 17 -11q36 -9 36 -27q0 -9 -4 -14q-93 -122 -114 -205q-13 -52 -13 -84
q0 -44 19 -72q3 -5 3 -10q0 -16 -27 -19q-3 0 -9.5 -2t-12.5 -2q-18 0 -35 8t-23 20q-15 31 -15 69q0 13 0.5 22.5t1 14t0.5 5.5q0 3 -2 3zM423 407q-8 0 -20 -7q-141 -73 -219 -168q0 -1 -7 -10.5t-14.5 -20t-17 -26t-17 -29t-12.5 -27.5t-5 -23q0 -14 6 -14q14 0 39 24
q24 23 83.5 72.5t98 89.5t60.5 82q11 19 28 36q6 6 6 12q0 9 -9 9zM440 658q9 -8 47 -35l85 -59q29 -20 29 -30q0 -3 -3 -14t-3 -17q0 -7 -7.5 -12t-15.5 -5q-23 0 -43 14l-100 64q-26 16 -50 26q-9 4 -14 10.5t-5.5 12t-0.5 17.5q0 13 12 29.5t30 16.5q7 0 13 -3l7 -3
q4 0 19 -12z" />
    <glyph glyph-name="uni0089" horiz-adv-x="468" 
d="M320 124q-2 0 -11 -9l-42 -40q-43 -41 -81 -60t-60 -19q-14 0 -33 12q-18 12 -49 37q-26 21 -26 58q0 53 54.5 142.5t148.5 157.5q79 56 159 78q15 4 27 4q40 0 74 -34q11 -11 17 -23q4 -8 17 -11q36 -9 36 -27q0 -9 -4 -14q-93 -122 -114 -205q-13 -52 -13 -84
q0 -44 19 -72q3 -5 3 -10q0 -16 -27 -19q-3 0 -9.5 -2t-12.5 -2q-18 0 -35 8t-23 20q-15 31 -15 69q0 13 0.5 22.5t1 14t0.5 5.5q0 3 -2 3zM423 407q-8 0 -20 -7q-141 -73 -219 -168q0 -1 -7 -10.5t-14.5 -20t-17 -26t-17 -29t-12.5 -27.5t-5 -23q0 -14 6 -14q14 0 39 24
q24 23 83.5 72.5t98 89.5t60.5 82q11 19 28 36q6 6 6 12q0 9 -9 9zM499 591q-4 0 -11 -3q-77 -34 -87 -44q-4 -4 -12 -4t-14.5 2.5t-12 7t-7.5 5.5q-13 7 -13 32q0 9 1 15t2.5 8t4 5t3.5 4q6 9 58 27l88 31q10 3 20 3q26 0 32 -12q1 -2 5 -5.5t7 -9.5l59 -101q12 -21 12 -27
q0 -5 -3 -9t-7.5 -7.5t-5.5 -4.5q-11 -13 -23 -13q-20 0 -36 21l-54 74q-3 5 -6 5z" />
    <glyph glyph-name="uni008A" horiz-adv-x="468" 
d="M320 124q-2 0 -11 -9l-42 -40q-43 -41 -81 -60t-60 -19q-14 0 -33 12q-18 12 -49 37q-26 21 -26 58q0 53 54.5 142.5t148.5 157.5q79 56 159 78q15 4 27 4q40 0 74 -34q11 -11 17 -23q4 -8 17 -11q36 -9 36 -27q0 -9 -4 -14q-93 -122 -114 -205q-13 -52 -13 -84
q0 -44 19 -72q3 -5 3 -10q0 -16 -27 -19q-3 0 -9.5 -2t-12.5 -2q-18 0 -35 8t-23 20q-15 31 -15 69q0 13 0.5 22.5t1 14t0.5 5.5q0 3 -2 3zM423 407q-8 0 -20 -7q-141 -73 -219 -168q0 -1 -7 -10.5t-14.5 -20t-17 -26t-17 -29t-12.5 -27.5t-5 -23q0 -14 6 -14q14 0 39 24
q24 23 83.5 72.5t98 89.5t60.5 82q11 19 28 36q6 6 6 12q0 9 -9 9zM449 657q11 -19 11 -35q0 -13 -10.5 -29t-10.5 -19q-1 -6 -15.5 -13.5t-32.5 -7.5q-29 0 -43 21q-11 16 -11 24q0 10 1 18q3 25 13 41q12 20 44 20q42 0 54 -20zM576 625q17 0 34.5 -7.5t20.5 -19.5
q1 -5 6.5 -17.5t5.5 -21.5q0 -10 -10.5 -26.5t-19.5 -21.5q-10 -5 -30 -5q-37 0 -44 21q-1 4 -11 18t-10 28t10 33.5t29 19.5q1 0 8 -0.5t11 -0.5z" />
    <glyph glyph-name="uni008B" horiz-adv-x="468" 
d="M320 124q-2 0 -11 -9l-42 -40q-43 -41 -81 -60t-60 -19q-14 0 -33 12q-18 12 -49 37q-26 21 -26 58q0 53 54.5 142.5t148.5 157.5q79 56 159 78q15 4 27 4q40 0 74 -34q11 -11 17 -23q4 -8 17 -11q36 -9 36 -27q0 -9 -4 -14q-93 -122 -114 -205q-13 -52 -13 -84
q0 -44 19 -72q3 -5 3 -10q0 -16 -27 -19q-3 0 -9.5 -2t-12.5 -2q-18 0 -35 8t-23 20q-15 31 -15 69q0 13 0.5 22.5t1 14t0.5 5.5q0 3 -2 3zM423 407q-8 0 -20 -7q-141 -73 -219 -168q0 -1 -7 -10.5t-14.5 -20t-17 -26t-17 -29t-12.5 -27.5t-5 -23q0 -14 6 -14q14 0 39 24
q24 23 83.5 72.5t98 89.5t60.5 82q11 19 28 36q6 6 6 12q0 9 -9 9zM481 570q-8 13 -17 13q-11 0 -33 -14q-7 -4 -20 -4q-17 0 -32 6.5t-15 17.5q0 4 -4 17.5t-4 19.5q0 12 12 17l62 23q29 10 46 10q33 0 67 -48q16 -23 30 -23q11 0 30 8q23 10 46 10q28 0 33 -25q1 -4 3 -11
t2 -10q0 -8 -11 -15q-2 -1 -11.5 -7.5t-15.5 -10.5t-17 -10t-20 -9.5t-21 -6t-23 -2.5q-34 0 -61 22q-10 8 -26 32z" />
    <glyph glyph-name="uni008C" horiz-adv-x="468" 
d="M320 124q-2 0 -11 -9l-42 -40q-43 -41 -81 -60t-60 -19q-14 0 -33 12q-18 12 -49 37q-26 21 -26 58q0 53 54.5 142.5t148.5 157.5q79 56 159 78q15 4 27 4q40 0 74 -34q11 -11 17 -23q4 -8 17 -11q36 -9 36 -27q0 -9 -4 -14q-93 -122 -114 -205q-13 -52 -13 -84
q0 -44 19 -72q3 -5 3 -10q0 -16 -27 -19q-3 0 -9.5 -2t-12.5 -2q-18 0 -35 8t-23 20q-15 31 -15 69q0 13 0.5 22.5t1 14t0.5 5.5q0 3 -2 3zM423 407q-8 0 -20 -7q-141 -73 -219 -168q0 -1 -7 -10.5t-14.5 -20t-17 -26t-17 -29t-12.5 -27.5t-5 -23q0 -14 6 -14q14 0 39 24
q24 23 83.5 72.5t98 89.5t60.5 82q11 19 28 36q6 6 6 12q0 9 -9 9zM533 694q39 0 66.5 -19.5t29.5 -34.5q2 -16 2 -26q0 -48 -24.5 -81t-65.5 -33q-48 0 -75 17q-40 24 -40 61q0 25 21 63t44 47q15 6 42 6zM544 635q-2 3 -3 3q-2 0 -7 -7q-21 -29 -21 -54q0 -22 8 -22
q1 0 5 5q23 32 23 51q0 14 -5 24z" />
    <glyph glyph-name="uni008D" horiz-adv-x="346" 
d="M295 360q13 24 13 26q0 3 -4 3q-1 0 -21.5 -24.5t-49 -64.5t-46.5 -71q-15 -27 -36 -74.5t-21 -72.5q0 -7 1.5 -9t8.5 -2q40 0 121 60q89 67 126 67q22 0 41 -20q9 -10 9 -18q0 -2 -1.5 -5t-1.5 -4q0 -9 -11 -13q-27 -9 -107 -74q-50 -41 -94 -60q-8 -3 -8 -8q0 -4 5 -11
t5 -19q0 -26 -22 -55q-37 -49 -95 -49q-32 0 -72 19t-40 42q0 11 11 22t25 11q15 0 23 -11q2 -2 7.5 -6t9.5 -8q6 -6 14 -6q21 0 48 46q7 12 7 16q0 5 -10 7q-31 8 -55 25.5t-29 26.5q-11 22 -11 47q0 30 17 75q1 2 4 16t7 23q12 26 35 67.5t65.5 100.5t78.5 84q24 17 49 17
q33 0 75.5 -19t47.5 -37q3 -10 3 -19q0 -7 -17 -48t-17 -55q0 -9 -7.5 -15t-18.5 -6q-20 0 -37 13l-23 18q-11 10 -11 22q0 14 9 30z" />
    <glyph glyph-name="uni008E" horiz-adv-x="366" 
d="M411 98q-50 -46 -148 -102q-19 -11 -44 -11q-38 0 -109 37q-35 18 -54 73q-13 37 -13 70q0 20 6 41q35 123 169 266q45 47 114 47q34 0 67 -12q40 -14 40 -67q0 -28 -16.5 -63.5t-36.5 -59.5q-114 -140 -222 -205q-11 -7 -11 -12t6 -15.5t12 -13.5q10 -5 19 -5
q8 0 18 2.5t20 7.5t16.5 8.5t15 9t9.5 5.5q33 19 82.5 62t73.5 57q13 8 26 8q15 0 26 -9t11 -20q0 -22 -7 -29q-12 -10 -34 -33.5t-36 -36.5zM331 429q0 6 -5 6q-11 0 -42 -31q-75 -75 -111 -150q-11 -23 -11 -28q0 -3 3 -3q4 0 17 12q69 63 112 121q8 11 12.5 21t9.5 18
q15 24 15 34zM360 649l61 24q74 30 89 43q6 6 20 6q21 0 35 -14q13 -13 13 -36q0 -15 -5 -25q-10 -17 -80 -38l-99 -30q-13 -4 -26 -4q-14 0 -22 5q-9 6 -19.5 18.5t-10.5 19.5q0 10 6 17t15 7q4 0 23 7z" />
    <glyph glyph-name="uni008F" horiz-adv-x="366" 
d="M411 98q-50 -46 -148 -102q-19 -11 -44 -11q-38 0 -109 37q-35 18 -54 73q-13 37 -13 70q0 20 6 41q35 123 169 266q45 47 114 47q34 0 67 -12q40 -14 40 -67q0 -28 -16.5 -63.5t-36.5 -59.5q-114 -140 -222 -205q-11 -7 -11 -12t6 -15.5t12 -13.5q10 -5 19 -5
q8 0 18 2.5t20 7.5t16.5 8.5t15 9t9.5 5.5q33 19 82.5 62t73.5 57q13 8 26 8q15 0 26 -9t11 -20q0 -22 -7 -29q-12 -10 -34 -33.5t-36 -36.5zM331 429q0 6 -5 6q-11 0 -42 -31q-75 -75 -111 -150q-11 -23 -11 -28q0 -3 3 -3q4 0 17 12q69 63 112 121q8 11 12.5 21t9.5 18
q15 24 15 34zM328 732q9 -8 47 -35l85 -59q29 -20 29 -30q0 -3 -3 -14t-3 -17q0 -7 -7.5 -12t-15.5 -5q-23 0 -43 14l-100 64q-26 16 -50 26q-9 4 -14 10.5t-5.5 12t-0.5 17.5q0 13 12 29.5t30 16.5q7 0 13 -3l7 -3q4 0 19 -12z" />
    <glyph glyph-name="uni0090" horiz-adv-x="366" 
d="M411 98q-50 -46 -148 -102q-19 -11 -44 -11q-38 0 -109 37q-35 18 -54 73q-13 37 -13 70q0 20 6 41q35 123 169 266q45 47 114 47q34 0 67 -12q40 -14 40 -67q0 -28 -16.5 -63.5t-36.5 -59.5q-114 -140 -222 -205q-11 -7 -11 -12t6 -15.5t12 -13.5q10 -5 19 -5
q8 0 18 2.5t20 7.5t16.5 8.5t15 9t9.5 5.5q33 19 82.5 62t73.5 57q13 8 26 8q15 0 26 -9t11 -20q0 -22 -7 -29q-12 -10 -34 -33.5t-36 -36.5zM331 429q0 6 -5 6q-11 0 -42 -31q-75 -75 -111 -150q-11 -23 -11 -28q0 -3 3 -3q4 0 17 12q69 63 112 121q8 11 12.5 21t9.5 18
q15 24 15 34zM409 639q-4 0 -11 -3q-77 -34 -87 -44q-4 -4 -12 -4t-14.5 2.5t-12 7t-7.5 5.5q-13 7 -13 32q0 9 1 15t2.5 8t4 5t3.5 4q6 9 58 27l88 31q11 3 20 3q26 0 32 -12q1 -2 5 -5.5t7 -9.5l59 -101q12 -21 12 -27q0 -5 -3 -9t-7.5 -7.5t-5.5 -4.5q-11 -13 -23 -13
q-20 0 -36 21l-54 74q-3 5 -6 5z" />
    <glyph glyph-name="uni0091" horiz-adv-x="366" 
d="M411 98q-50 -46 -148 -102q-19 -11 -44 -11q-38 0 -109 37q-35 18 -54 73q-13 37 -13 70q0 20 6 41q35 123 169 266q45 47 114 47q34 0 67 -12q40 -14 40 -67q0 -28 -16.5 -63.5t-36.5 -59.5q-114 -140 -222 -205q-11 -7 -11 -12t6 -15.5t12 -13.5q10 -5 19 -5
q8 0 18 2.5t20 7.5t16.5 8.5t15 9t9.5 5.5q33 19 82.5 62t73.5 57q13 8 26 8q15 0 26 -9t11 -20q0 -22 -7 -29q-12 -10 -34 -33.5t-36 -36.5zM331 429q0 6 -5 6q-11 0 -42 -31q-75 -75 -111 -150q-11 -23 -11 -28q0 -3 3 -3q4 0 17 12q69 63 112 121q8 11 12.5 21t9.5 18
q15 24 15 34zM379 709q11 -19 11 -35q0 -13 -10.5 -29t-10.5 -19q-1 -6 -15.5 -13.5t-32.5 -7.5q-29 0 -43 21q-11 16 -11 24q0 10 1 18q3 25 13 41q12 20 44 20q42 0 54 -20zM506 677q17 0 34.5 -7.5t20.5 -19.5q1 -5 6.5 -17.5t5.5 -21.5q0 -10 -10.5 -26.5t-19.5 -21.5
q-10 -5 -30 -5q-37 0 -44 21q-1 4 -11 18t-10 28t10 33.5t29 19.5q1 0 8 -0.5t11 -0.5z" />
    <glyph glyph-name="uni0092" horiz-adv-x="220" 
d="M207 109q2 1 7.5 5t9.5 6.5t10 5.5t12.5 4.5t13.5 1.5q47 0 47 -29q0 -16 -16 -31l-41 -38q-54 -48 -101 -48q-39 0 -67 32q-37 42 -37 96q0 35 16 81q3 8 8.5 24.5t8.5 24.5q80 185 95 217q14 30 57 30q29 0 46 -12q11 -7 11 -25t-13.5 -42.5t-30.5 -48t-20 -30.5
q-32 -74 -58 -139q-23 -58 -23 -97q0 -20 8 -20q12 0 57 32zM254 619l61 24q74 30 89 43q6 6 20 6q21 0 35 -14q13 -13 13 -36q0 -15 -5 -25q-10 -17 -80 -38l-99 -30q-13 -4 -26 -4q-14 0 -22 5q-9 6 -19.5 18.5t-10.5 19.5q0 10 6 17t15 7q4 0 23 7z" />
    <glyph glyph-name="uni0093" horiz-adv-x="220" 
d="M207 109q2 1 7.5 5t9.5 6.5t10 5.5t12.5 4.5t13.5 1.5q47 0 47 -29q0 -16 -16 -31l-41 -38q-54 -48 -101 -48q-39 0 -67 32q-37 42 -37 96q0 35 16 81q3 8 8.5 24.5t8.5 24.5q80 185 95 217q14 30 57 30q29 0 46 -12q11 -7 11 -25t-13.5 -42.5t-30.5 -48t-20 -30.5
q-32 -74 -58 -139q-23 -58 -23 -97q0 -20 8 -20q12 0 57 32zM218 688q9 -8 47 -35l85 -59q29 -20 29 -30q0 -3 -3 -14t-3 -17q0 -7 -7.5 -12t-15.5 -5q-23 0 -43 14l-100 64q-26 16 -50 26q-9 4 -14 10.5t-5.5 12t-0.5 17.5q0 13 12 29.5t30 16.5q7 0 13 -3l7 -3q4 0 19 -12
z" />
    <glyph glyph-name="uni0094" horiz-adv-x="220" 
d="M207 109q2 1 7.5 5t9.5 6.5t10 5.5t12.5 4.5t13.5 1.5q47 0 47 -29q0 -16 -16 -31l-41 -38q-54 -48 -101 -48q-39 0 -67 32q-37 42 -37 96q0 35 16 81q3 8 8.5 24.5t8.5 24.5q80 185 95 217q14 30 57 30q29 0 46 -12q11 -7 11 -25t-13.5 -42.5t-30.5 -48t-20 -30.5
q-32 -74 -58 -139q-23 -58 -23 -97q0 -20 8 -20q12 0 57 32zM293 605q-4 0 -11 -3q-77 -34 -87 -44q-4 -4 -12 -4t-14.5 2.5t-12 7t-7.5 5.5q-13 7 -13 32q0 9 1 15t2.5 8t4 5t3.5 4q6 9 58 27l88 31q10 3 20 3q26 0 32 -12q1 -2 5 -5.5t7 -9.5l59 -101q12 -21 12 -27
q0 -5 -3 -9t-7.5 -7.5t-5.5 -4.5q-11 -13 -23 -13q-20 0 -36 21l-54 74q-3 5 -6 5z" />
    <glyph glyph-name="uni0095" horiz-adv-x="220" 
d="M207 109q2 1 7.5 5t9.5 6.5t10 5.5t12.5 4.5t13.5 1.5q47 0 47 -29q0 -16 -16 -31l-41 -38q-54 -48 -101 -48q-39 0 -67 32q-37 42 -37 96q0 35 16 81q3 8 8.5 24.5t8.5 24.5q80 185 95 217q14 30 57 30q29 0 46 -12q11 -7 11 -25t-13.5 -42.5t-30.5 -48t-20 -30.5
q-32 -74 -58 -139q-23 -58 -23 -97q0 -20 8 -20q12 0 57 32zM251 691q11 -19 11 -35q0 -13 -10.5 -29t-10.5 -19q-1 -6 -15.5 -13.5t-32.5 -7.5q-29 0 -43 21q-11 16 -11 24q0 10 1 18q3 25 13 41q12 20 44 20q42 0 54 -20zM378 659q17 0 34.5 -7.5t20.5 -19.5
q1 -5 6.5 -17.5t5.5 -21.5q0 -10 -10.5 -26.5t-19.5 -21.5q-10 -5 -30 -5q-37 0 -44 21q-1 4 -11 18t-10 28t10 33.5t29 19.5q1 0 8 -0.5t11 -0.5z" />
    <glyph glyph-name="uni0096" horiz-adv-x="420" 
d="M134 115q62 89 130 160q47 49 60.5 64.5t19.5 28.5q12 28 19 37t22 9q12 0 23.5 -4.5t14.5 -4.5q18 -2 26.5 -14t8.5 -23q0 -8 -10 -26q-48 -79 -68 -145q-12 -38 -12 -88q0 -13 7 -40q3 -12 31 -31q18 -12 18 -31q0 -10 -8.5 -17.5t-24.5 -7.5q-48 0 -66 18
q-6 6 -21 17.5t-20 18.5q-17 25 -17 68q0 4 0.5 14t0.5 12q0 4 -2 4q-3 0 -14 -16l-52 -72q-10 -14 -22.5 -24t-17.5 -15q-12 -14 -37 -14q-18 0 -32 8q-45 24 -61 45q-9 11 -9 29q0 12 5 33.5t6 28.5q2 21 49 133q43 103 96 182l6 10q6 9 10 13q13 11 45 11q40 0 51 -23
q5 -10 5 -23q0 -18 -26 -48q-37 -40 -68 -99q-25 -46 -66 -153q-12 -32 -12 -34t1 -2q3 0 11 11zM361 576q-8 13 -17 13q-11 0 -33 -14q-7 -4 -20 -4q-17 0 -32 6.5t-15 17.5q0 4 -4 17.5t-4 19.5q0 12 12 17l62 23q29 10 46 10q33 0 67 -48q16 -23 30 -23q11 0 30 8
q23 10 46 10q28 0 33 -25q1 -4 3 -11t2 -10q0 -8 -11 -15q-2 -1 -11.5 -7.5t-15.5 -10.5t-17 -10t-20 -9.5t-21 -6t-23 -2.5q-34 0 -61 22q-10 8 -26 32z" />
    <glyph glyph-name="uni0097" horiz-adv-x="368" 
d="M354 455q11 -30 19 -38t25 -8q5 0 29 1.5t45 1.5q34 0 56 -11t22 -24q0 -11 -18 -18q-6 -2 -12.5 -6.5t-14.5 -6.5q-12 -2 -35.5 -8.5t-37.5 -8.5t-37 -2q-6 0 -9 -11q-42 -170 -122 -258q-1 -1 -6 -6.5t-8 -8.5l-9.5 -9.5t-12 -11t-13.5 -9.5t-15 -8.5t-16 -5.5t-18 -2
q-17 0 -33 8q-67 33 -80 67q-15 38 -15 82q0 93 86 222q4 6 12.5 15.5t11.5 13.5q66 94 123 94q40 0 68 -24q11 -10 15 -20zM270 403q-8 0 -17 -12q-47 -61 -85 -133.5t-38 -124.5q0 -15 5 -29q8 -21 16 -21q11 0 25 21q29 44 41 63.5t32 57t28 70t8 67.5q0 25 -4 28
q-6 5 -8 10q-1 3 -3 3zM286 621l61 24q74 30 89 43q6 6 20 6q21 0 35 -14q13 -13 13 -36q0 -15 -5 -25q-10 -17 -80 -38l-99 -30q-13 -4 -26 -4q-14 0 -22 5q-9 6 -19.5 18.5t-10.5 19.5q0 10 6 17t15 7q4 0 23 7z" />
    <glyph glyph-name="uni0098" horiz-adv-x="368" 
d="M354 455q11 -30 19 -38t25 -8q5 0 29 1.5t45 1.5q34 0 56 -11t22 -24q0 -11 -18 -18q-6 -2 -12.5 -6.5t-14.5 -6.5q-12 -2 -35.5 -8.5t-37.5 -8.5t-37 -2q-6 0 -9 -11q-42 -170 -122 -258q-1 -1 -6 -6.5t-8 -8.5l-9.5 -9.5t-12 -11t-13.5 -9.5t-15 -8.5t-16 -5.5t-18 -2
q-17 0 -33 8q-67 33 -80 67q-15 38 -15 82q0 93 86 222q4 6 12.5 15.5t11.5 13.5q66 94 123 94q40 0 68 -24q11 -10 15 -20zM270 403q-8 0 -17 -12q-47 -61 -85 -133.5t-38 -124.5q0 -15 5 -29q8 -21 16 -21q11 0 25 21q29 44 41 63.5t32 57t28 70t8 67.5q0 25 -4 28
q-6 5 -8 10q-1 3 -3 3zM282 682q9 -8 47 -35l85 -59q29 -20 29 -30q0 -3 -3 -14t-3 -17q0 -7 -7.5 -12t-15.5 -5q-23 0 -43 14l-100 64q-26 16 -50 26q-9 4 -14 10.5t-5.5 12t-0.5 17.5q0 13 12 29.5t30 16.5q7 0 13 -3l7 -3q4 0 19 -12z" />
    <glyph glyph-name="uni0099" horiz-adv-x="368" 
d="M354 455q11 -30 19 -38t25 -8q5 0 29 1.5t45 1.5q34 0 56 -11t22 -24q0 -11 -18 -18q-6 -2 -12.5 -6.5t-14.5 -6.5q-12 -2 -35.5 -8.5t-37.5 -8.5t-37 -2q-6 0 -9 -11q-42 -170 -122 -258q-1 -1 -6 -6.5t-8 -8.5l-9.5 -9.5t-12 -11t-13.5 -9.5t-15 -8.5t-16 -5.5t-18 -2
q-17 0 -33 8q-67 33 -80 67q-15 38 -15 82q0 93 86 222q4 6 12.5 15.5t11.5 13.5q66 94 123 94q40 0 68 -24q11 -10 15 -20zM270 403q-8 0 -17 -12q-47 -61 -85 -133.5t-38 -124.5q0 -15 5 -29q8 -21 16 -21q11 0 25 21q29 44 41 63.5t32 57t28 70t8 67.5q0 25 -4 28
q-6 5 -8 10q-1 3 -3 3zM333 607q-4 0 -11 -3q-77 -34 -87 -44q-4 -4 -12 -4t-14.5 2.5t-12 7t-7.5 5.5q-13 7 -13 32q0 9 1 15t2.5 8t4 5t3.5 4q6 9 58 27l88 31q10 3 20 3q26 0 32 -12q1 -2 5 -5.5t7 -9.5l59 -101q12 -21 12 -27q0 -5 -3 -9t-7.5 -7.5t-5.5 -4.5
q-11 -13 -23 -13q-20 0 -36 21l-54 74q-3 5 -6 5z" />
    <glyph glyph-name="uni009A" horiz-adv-x="368" 
d="M354 455q11 -30 19 -38t25 -8q5 0 29 1.5t45 1.5q34 0 56 -11t22 -24q0 -11 -18 -18q-6 -2 -12.5 -6.5t-14.5 -6.5q-12 -2 -35.5 -8.5t-37.5 -8.5t-37 -2q-6 0 -9 -11q-42 -170 -122 -258q-1 -1 -6 -6.5t-8 -8.5l-9.5 -9.5t-12 -11t-13.5 -9.5t-15 -8.5t-16 -5.5t-18 -2
q-17 0 -33 8q-67 33 -80 67q-15 38 -15 82q0 93 86 222q4 6 12.5 15.5t11.5 13.5q66 94 123 94q40 0 68 -24q11 -10 15 -20zM270 403q-8 0 -17 -12q-47 -61 -85 -133.5t-38 -124.5q0 -15 5 -29q8 -21 16 -21q11 0 25 21q29 44 41 63.5t32 57t28 70t8 67.5q0 25 -4 28
q-6 5 -8 10q-1 3 -3 3zM317 689q11 -19 11 -35q0 -13 -10.5 -29t-10.5 -19q-1 -6 -15.5 -13.5t-32.5 -7.5q-29 0 -43 21q-11 16 -11 24q0 10 1 18q3 25 13 41q12 20 44 20q42 0 54 -20zM444 657q17 0 34.5 -7.5t20.5 -19.5q1 -5 6.5 -17.5t5.5 -21.5q0 -10 -10.5 -26.5
t-19.5 -21.5q-10 -5 -30 -5q-37 0 -44 21q-1 4 -11 18t-10 28t10 33.5t29 19.5q1 0 8 -0.5t11 -0.5z" />
    <glyph glyph-name="uni009B" horiz-adv-x="368" 
d="M354 455q11 -30 19 -38t25 -8q5 0 29 1.5t45 1.5q34 0 56 -11t22 -24q0 -11 -18 -18q-6 -2 -12.5 -6.5t-14.5 -6.5q-12 -2 -35.5 -8.5t-37.5 -8.5t-37 -2q-6 0 -9 -11q-42 -170 -122 -258q-1 -1 -6 -6.5t-8 -8.5l-9.5 -9.5t-12 -11t-13.5 -9.5t-15 -8.5t-16 -5.5t-18 -2
q-17 0 -33 8q-67 33 -80 67q-15 38 -15 82q0 93 86 222q4 6 12.5 15.5t11.5 13.5q66 94 123 94q40 0 68 -24q11 -10 15 -20zM270 403q-8 0 -17 -12q-47 -61 -85 -133.5t-38 -124.5q0 -15 5 -29q8 -21 16 -21q11 0 25 21q29 44 41 63.5t32 57t28 70t8 67.5q0 25 -4 28
q-6 5 -8 10q-1 3 -3 3zM319 588q-8 13 -17 13q-11 0 -33 -14q-7 -4 -20 -4q-17 0 -32 6.5t-15 17.5q0 4 -4 17.5t-4 19.5q0 12 12 17l62 23q29 10 46 10q33 0 67 -48q16 -23 30 -23q11 0 30 8q23 10 46 10q28 0 33 -25q1 -4 3 -11t2 -10q0 -8 -11 -15q-2 -1 -11.5 -7.5
t-15.5 -10.5t-17 -10t-20 -9.5t-21 -6t-23 -2.5q-34 0 -61 22q-10 8 -26 32z" />
    <glyph glyph-name="uni009C" horiz-adv-x="420" 
d="M251 50q-64 -68 -99 -68q-36 0 -72 22q-26 16 -32.5 32.5t-6.5 46.5q0 35 23 113q4 13 8.5 33t7.5 29q6 17 17.5 55.5t23.5 69.5t28 59q17 30 50 30q14 0 30 -7t21 -17q11 -25 11 -27q0 -17 -21 -32q-20 -14 -27 -43q-8 -33 -38 -124t-36 -131q-2 -14 -2 -18q0 -5 2 -5
q5 0 16 11q18 18 28.5 32t15.5 19q105 112 146 219q6 15 20 23t25 8q8 0 14.5 -2.5t13 -6t8.5 -4.5q29 -11 29 -29q0 -14 -6 -26q-57 -113 -72 -221q-6 -43 -6 -57q0 -25 9 -47q10 -25 10 -35q0 -24 -28 -24q-24 0 -52 19q-5 4 -12 6.5t-9.5 5.5t-6.5 12q-10 24 -10 57
q0 6 0.5 15t1 15.5t0.5 7.5q0 3 -3 3q-2 0 -20 -19zM300 585l61 24q74 30 89 43q6 6 20 6q21 0 35 -14q13 -13 13 -36q0 -15 -5 -25q-10 -17 -80 -38l-99 -30q-13 -4 -26 -4q-14 0 -22 5q-9 6 -19.5 18.5t-10.5 19.5q0 10 6 17t15 7q4 0 23 7z" />
    <glyph glyph-name="uni009D" horiz-adv-x="420" 
d="M251 50q-64 -68 -99 -68q-36 0 -72 22q-26 16 -32.5 32.5t-6.5 46.5q0 35 23 113q4 13 8.5 33t7.5 29q6 17 17.5 55.5t23.5 69.5t28 59q17 30 50 30q14 0 30 -7t21 -17q11 -25 11 -27q0 -17 -21 -32q-20 -14 -27 -43q-8 -33 -38 -124t-36 -131q-2 -14 -2 -18q0 -5 2 -5
q5 0 16 11q18 18 28.5 32t15.5 19q105 112 146 219q6 15 20 23t25 8q8 0 14.5 -2.5t13 -6t8.5 -4.5q29 -11 29 -29q0 -14 -6 -26q-57 -113 -72 -221q-6 -43 -6 -57q0 -25 9 -47q10 -25 10 -35q0 -24 -28 -24q-24 0 -52 19q-5 4 -12 6.5t-9.5 5.5t-6.5 12q-10 24 -10 57
q0 6 0.5 15t1 15.5t0.5 7.5q0 3 -3 3q-2 0 -20 -19zM282 642q9 -8 47 -35l85 -59q29 -20 29 -30q0 -3 -3 -14t-3 -17q0 -7 -7.5 -12t-15.5 -5q-23 0 -43 14l-100 64q-26 16 -50 26q-9 4 -14 10.5t-5.5 12t-0.5 17.5q0 13 12 29.5t30 16.5q7 0 13 -3l7 -3q4 0 19 -12z" />
    <glyph glyph-name="uni009E" horiz-adv-x="420" 
d="M251 50q-64 -68 -99 -68q-36 0 -72 22q-26 16 -32.5 32.5t-6.5 46.5q0 35 23 113q4 13 8.5 33t7.5 29q6 17 17.5 55.5t23.5 69.5t28 59q17 30 50 30q14 0 30 -7t21 -17q11 -25 11 -27q0 -17 -21 -32q-20 -14 -27 -43q-8 -33 -38 -124t-36 -131q-2 -14 -2 -18q0 -5 2 -5
q5 0 16 11q18 18 28.5 32t15.5 19q105 112 146 219q6 15 20 23t25 8q8 0 14.5 -2.5t13 -6t8.5 -4.5q29 -11 29 -29q0 -14 -6 -26q-57 -113 -72 -221q-6 -43 -6 -57q0 -25 9 -47q10 -25 10 -35q0 -24 -28 -24q-24 0 -52 19q-5 4 -12 6.5t-9.5 5.5t-6.5 12q-10 24 -10 57
q0 6 0.5 15t1 15.5t0.5 7.5q0 3 -3 3q-2 0 -20 -19zM369 579q-4 0 -11 -3q-77 -34 -87 -44q-4 -4 -12 -4t-14.5 2.5t-12 7t-7.5 5.5q-13 7 -13 32q0 9 1 15t2.5 8t4 5t3.5 4q6 9 58 27l88 31q11 3 20 3q26 0 32 -12q1 -2 5 -5.5t7 -9.5l59 -101q12 -21 12 -27q0 -5 -3 -9
t-7.5 -7.5t-5.5 -4.5q-11 -13 -23 -13q-20 0 -36 21l-54 74q-3 5 -6 5z" />
    <glyph glyph-name="uni009F" horiz-adv-x="420" 
d="M251 50q-64 -68 -99 -68q-36 0 -72 22q-26 16 -32.5 32.5t-6.5 46.5q0 35 23 113q4 13 8.5 33t7.5 29q6 17 17.5 55.5t23.5 69.5t28 59q17 30 50 30q14 0 30 -7t21 -17q11 -25 11 -27q0 -17 -21 -32q-20 -14 -27 -43q-8 -33 -38 -124t-36 -131q-2 -14 -2 -18q0 -5 2 -5
q5 0 16 11q18 18 28.5 32t15.5 19q105 112 146 219q6 15 20 23t25 8q8 0 14.5 -2.5t13 -6t8.5 -4.5q29 -11 29 -29q0 -14 -6 -26q-57 -113 -72 -221q-6 -43 -6 -57q0 -25 9 -47q10 -25 10 -35q0 -24 -28 -24q-24 0 -52 19q-5 4 -12 6.5t-9.5 5.5t-6.5 12q-10 24 -10 57
q0 6 0.5 15t1 15.5t0.5 7.5q0 3 -3 3q-2 0 -20 -19zM351 663q11 -19 11 -35q0 -13 -10.5 -29t-10.5 -19q-1 -6 -15.5 -13.5t-32.5 -7.5q-29 0 -43 21q-11 16 -11 24q0 10 1 18q3 25 13 41q12 20 44 20q42 0 54 -20zM450 583q17 0 34.5 -7.5t20.5 -19.5q1 -5 6.5 -17.5
t5.5 -21.5q0 -10 -10.5 -26.5t-19.5 -21.5q-10 -5 -30 -5q-37 0 -44 21q-1 4 -11 18t-10 28t10 33.5t29 19.5q1 0 8 -0.5t11 -0.5z" />
    <glyph glyph-name="uni00A0" unicode="&#xa0;" horiz-adv-x="570" 
d="M281 359q0 6 -14 6q-93 0 -117 12q-20 11 -20 53q0 18 10 27q1 1 3.5 5t7 6t13.5 2q7 0 25 -2l41 -5q32 -4 62 -4q23 0 27 4q2 2 13 32l38 106q8 24 12 30.5t12 7.5q3 0 23.5 5t31.5 5q23 0 39 -11q4 -3 5.5 -5.5t2.5 -5.5t2 -5q4 -7 4 -14t-4 -19l-9 -31q-3 -12 -13 -23
q-12 -14 -26 -49q-4 -10 -4 -14q0 -2 6 -2q7 0 52.5 6t69.5 6q54 0 54 -38q0 -13 -7 -27.5t-7 -16.5q-4 -13 -20 -13q-24 0 -63 -3t-50 -4q-32 -1 -69 -8q-9 -1 -35 -90q-15 -51 -49 -148.5t-50 -150.5q-4 -12 -6 -16.5t-6.5 -8t-13.5 -3.5q-10 0 -16.5 2.5t-9.5 4.5
t-7.5 7.5t-5.5 6.5l-16 8q-16 7 -16 18q0 7 2 15.5t5.5 21t5.5 24.5q1 4 4.5 13.5t10 29t13.5 42.5l53 183q6 21 6 28z" />
    <glyph glyph-name="exclamdown" unicode="&#xa1;" horiz-adv-x="384" 
d="M486 545q0 -30 -24.5 -82.5t-70.5 -92.5q-28 -24 -76 -24q-32 0 -56 11q-51 23 -73.5 60t-22.5 73q0 56 61 131q46 57 114 57q50 0 93 -32q23 -17 39 -46t16 -55zM368 612q-8 0 -19 -10q-90 -82 -90 -151q0 -15 5 -26t10 -14.5t9 -3.5q12 0 21 12q50 67 68.5 97t18.5 51
q0 12 -6 26q-8 19 -17 19z" />
    <glyph glyph-name="cent" unicode="&#xa2;" horiz-adv-x="434" 
d="M251 356q-50 -67 -67 -115q-28 -79 -28 -106q0 -22 8 -40q4 -9 8 -9q3 0 9 18q35 112 82 252q3 9 3 12q0 2 -1 2q-4 0 -14 -14zM360 379q-3 0 -7 -12q-33 -92 -89 -275q-4 -13 -4 -16q0 -4 4 -4t13 4q17 7 30.5 21t15.5 15q42 30 73 30q21 0 37 -13q17 -14 17 -24
q0 -13 -21 -27q-96 -66 -151 -81q-18 -5 -34 -5q-8 0 -11 -8l-18 -52q-11 -32 -34 -32q-6 0 -12.5 3t-10.5 6t-10.5 8.5t-7.5 6.5q-16 12 -16 25q0 11 8 23q10 14 14 27q2 5 2 7t-6 4q-42 17 -68.5 55.5t-26.5 74.5q0 61 18 102q34 77 65 118t67 68q53 40 93 40q10 0 12 8
q7 24 12.5 36t16 21.5t25.5 9.5q5 0 12.5 -1t10.5 -1q8 0 22.5 -5.5t14.5 -15.5q0 -8 -6 -15q-12 -16 -16 -25q-11 -23 -11 -28q0 -3 15 -9q18 -7 29 -18l5 -5q32 -32 36 -50q2 -7 2 -15q0 -5 -3.5 -20t-8 -32.5t-5.5 -21.5q-7 -33 -14 -40q-8 -8 -25 -8q-26 0 -48.5 16.5
t-22.5 30.5q0 11 10 40q14 41 14 52q0 7 -7 7z" />
    <glyph glyph-name="sterling" unicode="&#xa3;" horiz-adv-x="490" 
d="M69 66v11q0 17 17 58q13 29 34 80q6 14 6 17t-4 3q-25 0 -35 18q-4 7 -5.5 19t-3.5 17q-5 13 -5 20q0 9 8.5 12t32.5 3q11 0 48 5q9 1 11 7l13 29q42 93 80 153t73.5 89t64.5 38.5t65 9.5q49 0 71 -27q6 -7 17 -19t15.5 -18t9 -16t4.5 -21t-4.5 -25.5t-11.5 -33
t-10 -26.5q-1 -2 -3 -11t-4 -14t-6 -12t-11 -10.5t-17 -3.5l-36 9q-26 6 -33 15t-7 29q0 11 11 30t12 32q1 6 6 19.5t5 21.5q0 5 -4 5q-6 0 -19 -7q-72 -39 -134 -171l-14 -30q-7 -15 -7 -18t3 -3q2 0 12 2q42 8 54 8q27 0 49 -22q19 -19 19 -37q0 -10 -3.5 -15.5t-5.5 -7
t-12 -3.5t-11 -2q-18 -5 -28 -5q-16 0 -55 -8.5t-50 -9.5q-14 -1 -17.5 -4t-8.5 -14q-28 -63 -59 -149q-4 -11 -4 -14q0 -4 4 -4q3 0 28 5q162 31 173 40t57 9q19 0 27 -2q12 -3 19.5 -9.5t14.5 -16t10 -12.5q15 -15 15 -29q0 -26 -35 -26t-43 -1q-41 -7 -125 -24.5
t-130 -24.5q-56 -8 -118 -8q-15 0 -23 1q-14 2 -23 8.5t-12 11.5t-6.5 17t-4.5 14q-7 17 -7 22q0 10 11 17.5t25 7.5q3 0 13.5 -1t12.5 -1q4 0 4 3z" />
    <glyph glyph-name="yen" unicode="&#xa5;" horiz-adv-x="490" 
d="M501 292q0 -47 -18 -95.5t-51 -90t-84.5 -68t-111.5 -26.5q-26 0 -57 10.5t-49 24.5q-21 16 -33 28.5t-24 43t-12 71.5q0 39 17.5 88.5t47.5 94.5t77 76t99 31q39 0 67.5 -9.5t40 -19t27.5 -28t21 -23.5q43 -40 43 -108z" />
    <glyph glyph-name="section" unicode="&#xa7;" horiz-adv-x="434" 
d="M104 -2q-70 -208 -76 -288q-1 -20 -32 -31q-33 -11 -37 -11q-12 0 -33 15q-11 8 -11 30q0 32 12 64q13 34 16 45q1 3 6 16t8 27q16 70 135 387q13 33 42.5 106.5t39.5 99.5q3 9 14 19t15 17q30 55 81 105q61 61 116 61q16 0 30.5 -5t27 -11.5t17.5 -8.5q36 -10 36 -39
q0 -11 -11 -36q-1 -2 -3.5 -11.5t-11 -27t-26.5 -48.5q-32 -54 -65 -92q-9 -10 -9 -12q0 -3 5 -3q10 0 21.5 -5.5t24 -26t12.5 -53.5q0 -44 -36 -123q-33 -71 -70 -114.5t-97 -59.5q-15 -4 -34 -4q-47 0 -85 29q-7 5 -11 5q-6 0 -11 -16zM396 562q4 9 4 13q0 3 -2 3
q-4 0 -12 -6q-80 -64 -111 -151q-8 -21 -10 -23q-6 -6 -10 -6q-2 0 -5 -6q-4 -8 -20 -50q-3 -8 -3 -10q0 -1 1 -1q4 0 25 21q44 44 83.5 107t59.5 109zM177 201q-12 -33 -27 -71q-8 -20 -8 -22t5 -2q22 0 43 -28q2 -3 6 -10t7 -10t8 -3q12 0 26 12q46 40 79 120q22 54 22 82
q0 21 -7 21q-6 0 -14 -8q-3 -3 -20 -15.5t-19 -14.5q-17 -17 -42 -33.5t-43 -16.5q-5 0 -9 2q-2 1 -4 1t-3 -4z" />
    <glyph glyph-name="copyright" unicode="&#xa9;" horiz-adv-x="796" 
d="M635 28q-80 -49 -209 -49q-42 0 -95.5 14t-87.5 38q-70 50 -100 107.5t-30 139.5q0 69 24 137.5t67 126t112 93.5t151 36q74 0 123 -14t74 -33t70 -64q82 -82 82 -203q0 -96 -50.5 -187.5t-130.5 -141.5zM715 383q0 109 -59 160t-154 51q-89 0 -158 -52.5t-103.5 -131.5
t-34.5 -166q0 -54 19 -93.5t50 -60t64 -29.5t69 -9q72 0 132 29.5t97.5 77t57.5 106t20 118.5zM483 214q26 32 40 42.5t32 10.5h21q22 0 33 -8q5 -4 7 -7t3 -5.5t1 -3.5q5 -7 5 -15q0 -5 -8 -11q-11 -8 -21 -21q-42 -52 -75 -77.5t-75 -25.5q-31 0 -49 4q-79 17 -113 70
q-23 36 -23 82q0 90 78 200q23 32 68 64t103 32q17 0 42 -5q38 -8 79 -49q10 -9 10 -27q0 -13 -7 -37.5t-7 -32.5q0 -16 -39 -16q-20 0 -40 6q-29 9 -29 28q0 10 8.5 29t8.5 25q0 9 -9 9q-34 0 -70.5 -44.5t-50.5 -74.5q-41 -85 -41 -144q0 -52 40 -52q33 0 78 54z" />
    <glyph glyph-name="ordfeminine" unicode="&#xaa;" horiz-adv-x="776" 
d="M246 547q-1 0 -14 -1t-21 -1q-54 0 -62 18q-4 10 -4 41q0 26 26 26q1 0 18 -3t41 -3q38 0 155 20q23 4 64 4q78 0 78 -26q0 -60 -51 -60q-8 0 -22 4.5t-26 4.5q-13 0 -34.5 -5t-27.5 -5q-4 0 -4 -5q0 -8 -4 -15q-59 -104 -90 -205q-6 -19 -6 -51q0 -22 -1.5 -33t-8 -19
t-20.5 -8q-24 0 -58 18q-7 4 -12 12.5t-5 12.5t6 29.5t18.5 67.5t26.5 80q15 41 42 97q0 5 -4 5zM620 433q3 0 13 11q33 37 91.5 94t63.5 63l8 13q7 12 15 17t20 5q7 0 12 -1t9.5 -2.5l7.5 -2.5q13 -3 22 -13t9 -18q0 -5 -7 -16q-58 -88 -92 -198t-34 -169q0 -17 -24 -17
q-6 0 -15 2t-12 2q-13 0 -37 16q-8 5 -8 14t1 18.5t2 17t3.5 19.5t4 18t6 20t6.5 19.5t7.5 22.5t7.5 22q0 4 -2 4t-12 -11q-39 -46 -43 -52q-8 -13 -23 -13q-4 0 -14 1.5t-15 1.5q-30 0 -42 26q-10 22 -10 53q0 14 -2 14q-3 0 -10 -16q-14 -30 -25 -67q-3 -8 -9.5 -24.5
t-10.5 -30t-4 -25.5q0 -5 -6 -10.5t-15 -6.5q-6 -1 -12.5 -5t-9.5 -4q-5 0 -11 2.5t-12.5 7t-8.5 5.5q-20 10 -20 31q0 19 21 71q29 72 78.5 159t72.5 138q5 10 18 10q1 0 10 1t18 1q4 0 9.5 -2t12 -6t9.5 -5q14 -6 14 -24q0 -7 -2 -15t-7 -22.5t-8 -26.5q-1 -3 -1.5 -14.5
t-2.5 -19.5q-1 -5 -4 -36t-3 -39t2 -8z" />
    <glyph glyph-name="guillemotleft" unicode="&#xab;" 
d="M312 769l61 24q74 30 89 43q6 6 20 6q21 0 35 -14q13 -13 13 -36q0 -15 -5 -25q-10 -17 -80 -38l-99 -30q-13 -4 -26 -4q-14 0 -22 5q-9 6 -19.5 18.5t-10.5 19.5q0 10 6 17t15 7q4 0 23 7z" />
    <glyph glyph-name="logicalnot" unicode="&#xac;" 
d="M371 821q11 -19 11 -35q0 -13 -10.5 -29t-10.5 -19q-1 -6 -15.5 -13.5t-32.5 -7.5q-29 0 -43 21q-11 16 -11 24q0 10 1 18q3 25 13 41q12 20 44 20q42 0 54 -20zM498 789q17 0 34.5 -7.5t20.5 -19.5q1 -5 6.5 -17.5t5.5 -21.5q0 -10 -10.5 -26.5t-19.5 -21.5
q-10 -5 -30 -5q-37 0 -44 21q-1 4 -11 18t-10 28t10 33.5t29 19.5q1 0 8 -0.5t11 -0.5z" />
    <glyph glyph-name="uni00AD" unicode="&#xad;" horiz-adv-x="590" 
d="M296 280q0 2 -8 2q-26 0 -73.5 4.5t-58.5 7.5q-28 9 -28 63q0 10 7 18t22 8q9 0 23 -2q74 -11 101 -11q33 0 63 3q8 1 14 12l25 45q51 91 78 91q17 0 34 -12q20 -15 20 -27q0 -3 2.5 -11.5t2.5 -12.5q0 -7 -4 -11q-1 -1 -16 -14t-20 -21q-6 -10 -12 -18q-4 -5 -4 -8
q0 -2 7 -2l22 2q22 2 33 2q25 0 38 -8q17 -10 17 -31q0 -15 -9 -36q-6 -13 -25 -13q-23 0 -63 -3l-71 -6q-11 -1 -14 -9q-5 -13 -11 -21q-4 -7 -4 -10q0 -2 8 -2l22 3q23 2 51 5t43 3q20 0 25 -2q33 -14 33 -31q0 -7 -5 -23t-6 -22q-2 -10 -19 -10q-4 0 -14.5 1t-12.5 1
q-5 0 -11 -1q-87 -14 -157 -14q-11 0 -16 -8l-38 -65q-49 -83 -61 -87q-6 -2 -11 -2q-29 0 -41 12q-21 21 -21 32q0 8 9 21t12 21t16 20.5t17 20.5l14 24q4 6 4 9t-9 3q-59 0 -72 8q-14 10 -24 27t-10 31q0 5 1.5 8t3.5 5.5t3 4.5q4 11 23 11q7 0 31 -3q49 -7 93 -7
q12 0 17 8l11 19q3 6 3 8z" />
    <glyph glyph-name="registered" unicode="&#xae;" horiz-adv-x="736" 
d="M339 193q-42 -13 -151 -37q-13 -3 -22 -22q-12 -27 -24.5 -72t-12.5 -57q0 -6 -6 -11t-7 -8q-7 -18 -26 -18q-32 0 -45.5 6t-24.5 21q-8 11 -8 30q0 31 32 105q5 12 5 14q0 5 -5 5q-7 0 -18.5 6t-11.5 15q0 35 10 54q8 15 13 19t17 4q3 0 16.5 -0.5t24.5 -0.5q10 0 20 15
q43 68 106 146.5t126.5 151.5t83.5 99q13 17 25 18q6 1 29 6t37 5q33 0 46 -14q10 -11 10 -22q0 -3 -2 -12t-2 -10q0 -5 6 -5q4 0 30 6q84 19 152 19q12 0 37.5 -4t32.5 -9q24 -18 42 -46q5 -8 5 -18q0 -29 -45 -29q-8 0 -25 7t-36 7q-31 0 -64 -4.5t-52 -9t-55 -14.5
t-48 -13t-14 -17q-7 -44 -21 -105q-6 -27 -6 -34q0 -5 5 -5t28 7q46 13 101 13q50 0 71 -17q25 -21 25 -47q0 -23 -30 -23q-6 0 -12.5 -1.5t-10.5 -1.5q-2 0 -12 2t-16 2q-37 0 -151 -43q-12 -4 -14.5 -7t-4.5 -11q-25 -133 -25 -180q0 -28 15 -28q23 0 106 38
q17 8 47.5 29.5t61.5 32.5q22 8 31 8q13 0 44.5 -14.5t31.5 -28.5q0 -10 -5 -17q-6 -9 -47 -32q-52 -31 -87 -48.5t-97 -33.5t-128 -16q-53 0 -79 39q-10 14 -10 59q0 50 12 134q3 19 3 25q0 4 -4 4t-23 -6zM417 501q-17 -22 -54 -68.5t-60 -78t-47 -67.5q-10 -15 -10 -17
t2 -2q5 0 19 4q49 14 104 34q13 4 16 7.5t5 13.5q4 25 10.5 54t15 62t12.5 49q5 21 5 23q0 3 -2 3q-3 0 -16 -17z" />
    <glyph glyph-name="macron" unicode="&#xaf;" horiz-adv-x="540" 
d="M520 582q4 0 8 3q9 6 22 6q33 0 46 -23q2 -3 5.5 -7.5t5 -8.5t1.5 -13q0 -11 -17 -23q-29 -20 -29 -25q0 -1 1 -5t2 -11l2 -14q3 -30 3 -56q0 -44 -35 -157t-102 -200q-58 -75 -162 -75q-75 0 -113 31q-7 6 -11 6q-2 0 -11 -6q-11 -9 -25 -9t-25 4q-6 2 -9 5.5t-5.5 7.5
t-3.5 6q-11 12 -11 23q0 5 2.5 10.5t5 8t11 10.5t12.5 12q9 9 9 13q0 2 -2 10.5t-4 27.5t-2 47q0 146 105 312q24 39 64.5 81.5t74.5 51.5q26 7 43 7q13 0 27 -5.5t19 -5.5t12 2t13 2q27 0 65 -38q5 -5 8 -5zM215 230l224 262q12 14 12 17q0 2 -4 8q-14 21 -32 21
q-14 0 -19 2q-3 1 -6.5 3.5t-4.5 2.5q-4 0 -13 -9q-109 -109 -154 -244q-16 -44 -18 -56t-2 -15q0 -5 3 -5q2 0 14 13zM434 358q-18 -21 -89 -107t-115 -137q-15 -17 -15 -21q0 -5 7 -15q19 -26 36 -26q49 0 73 36q89 136 120 259q6 22 6 28q0 4 -2 4q-3 0 -21 -21z" />
    <glyph glyph-name="degree" unicode="&#xb0;" horiz-adv-x="760" 
d="M416 230q-5 0 -19 -8q-17 -10 -50.5 -29.5t-58.5 -33.5t-49 -25q-69 -32 -98 -32q-21 0 -40 10.5t-27 27.5q-1 3 -12 20.5t-11 32.5q0 61 26.5 115.5t67.5 84.5q42 31 85 31q62 0 163 -65q13 -9 19 -9q5 0 19 7q6 3 31.5 16.5t35 18t33.5 14.5t41 14t42.5 7.5t51.5 3.5
q64 0 97.5 -35t33.5 -74q0 -16 -4 -23.5t-10 -10.5l-6 -2q-1 -2 -1.5 -6.5t-1 -12t-2.5 -14.5q-21 -85 -89 -126q-25 -15 -46 -15q-35 0 -81 25.5t-124 84.5q-11 8 -16 8zM697 321q0 17 -7 22q-6 4 -25 4q-45 0 -139 -49q-22 -12 -22 -13q0 -2 5 -5q105 -73 113 -73
q21 0 38.5 21.5t17.5 41.5q0 3 -2.5 11t-2.5 11q0 9 7 15.5t12 6.5t5 7zM161 205q6 0 36 17l118 66q8 5 8 6t-12 10q-42 30 -68 30t-47.5 -25t-30 -50t-8.5 -38q0 -16 4 -16z" />
    <glyph glyph-name="plusminus" unicode="&#xb1;" horiz-adv-x="590" 
d="M521 83q0 -14 -8 -36q-5 -12 -14 -12q-3 0 -12.5 1t-16.5 1q-14 0 -102 -4.5t-133 -4.5q-30 0 -77 3.5t-49 3.5q-13 0 -22 10t-12 24.5t-4 23t-1 14.5q0 19 43 19q4 0 25 -2t55.5 -3.5t73.5 -1.5q16 0 99 4t106 4q19 0 36 -12q6 -4 8 -6.5t3.5 -8.5t1.5 -17zM419 409
q0 -3 4 -3q18 0 55 5t55 5q27 0 42 -11t15 -25q0 -6 -2.5 -14t-6.5 -16l-5 -10q-5 -13 -17 -13q-3 0 -8 0.5t-8 0.5q-15 0 -31 -2q-17 -2 -56 -5t-55 -5q-12 -1 -14 -8q-4 -10 -14.5 -56t-15.5 -84q-4 -28 -37 -28q-3 0 -10.5 -1t-11.5 -1q-16 0 -26.5 5t-14 10t-3.5 9
q0 19 22 118q4 19 4 21q0 5 -5 5q-89 0 -115 12t-26 65q0 7 10 15q12 9 25 9q7 0 21 -3q30 -6 81 -6q27 0 33 2q5 1 7 8q20 58 27 87q12 52 26 56q5 1 14.5 5t18 6.5t17.5 2.5q12 0 28.5 -5t16.5 -17q0 -6 -8 -30l-13 -41q-19 -57 -19 -63z" />
    <glyph glyph-name="uni00B2" unicode="&#xb2;" horiz-adv-x="590" 
d="M294 309q12 -5 29 -15q9 -5 21 -11t28.5 -14t26.5 -13q56 -28 74 -28q38 0 38 -29q0 -7 -2 -12.5t-4 -8t-7 -7.5l-8 -8q-18 -21 -38 -21q-24 0 -92 34q-11 6 -192 97q-26 13 -26 33q0 9 6 27q2 7 7.5 15t6.5 11q3 10 15 18t54 29q77 37 153 77q83 44 103 44q5 0 14 1.5
t15 1.5q15 0 28.5 -5.5t14.5 -12.5q0 -2 4.5 -15t4.5 -21q0 -18 -12 -24q-4 -2 -10 -2q-1 0 -12.5 -4t-30 -11t-33.5 -15q-15 -7 -69 -35.5t-92 -46.5q-32 -15 -32 -18t17 -11zM85 47q-1 1 -5 3.5t-5.5 4t-3 5.5t-1.5 10q0 5 2 14.5t2 13.5q0 18 34 18q10 0 31 -2t30 -2
q31 0 95 4t94 4q31 0 76 3.5t52 3.5q39 0 39 -36q0 -28 -8 -40t-30 -12q-6 0 -35 -3t-74 -3q-12 0 -72 -2.5t-95 -2.5q-15 0 -40 0.5t-32 0.5q-34 0 -54 18z" />
    <glyph glyph-name="uni00B3" unicode="&#xb3;" horiz-adv-x="590" 
d="M417 330q15 8 15 10t-9 7q-100 50 -128 59q-27 8 -63 28q-25 13 -25 35q0 12 4 17q0 1 6.5 14t15 21t19.5 8t24.5 -8.5t15.5 -9.5q12 -5 31.5 -16t27.5 -15q92 -40 195 -92q25 -12 25 -27t-13 -32q-5 -6 -9 -16t-5 -12q-10 -16 -44 -32q-61 -29 -182 -95q-6 -3 -20.5 -12
t-27.5 -15.5t-31 -12.5q-31 -11 -53 -11q-39 0 -45 24q-2 7 -8 17t-6 14q0 9 14 17q9 5 33 14t54 25q6 3 85.5 43t103.5 53zM88 32q-4 3 -9.5 7t-7.5 6t-4 6t-2 9t2.5 14.5t2.5 12.5q0 7 8.5 13.5t19.5 6.5q3 0 24.5 -1.5t42.5 -1.5q17 0 69 5q74 7 121 10q44 3 74 6t41 4.5
t15 1.5q15 0 27.5 -10t12.5 -32q0 -20 -6 -30q-3 -5 -8.5 -8.5t-13.5 -5.5t-14.5 -3t-18.5 -2t-18 -2q-15 -2 -47 -3.5t-44 -2.5q-108 -11 -148 -11h-74q-33 0 -45 11z" />
    <glyph glyph-name="uni00B5" unicode="&#xb5;" 
d="M343 62q-4 0 -14 -15q-20 -31 -48 -51.5t-43 -20.5q-34 0 -63.5 15t-37.5 36q-5 13 -5 30q0 12 -3 12t-25 -48q-62 -133 -117 -242q-1 -2 -6.5 -15.5t-9.5 -18.5q-13 -22 -28 -22q-21 0 -34.5 2.5t-17.5 5.5t-6.5 6.5t-3.5 3.5q-21 8 -21 35q0 16 8 28t41 50q7 9 38 65
q125 230 250 505q15 32 30 32q5 0 12 5t17 5q3 0 10 -1.5t11 -1.5q23 -2 31 -15q6 -10 6 -23q0 -12 -10 -29q-7 -12 -11 -21q-1 -2 -18 -35t-22 -54q-5 -20 -12 -47.5t-10 -40.5t-5.5 -39t-2.5 -61q0 -27 4 -27t11 7q11 11 17.5 19.5t21 28.5t32.5 43q41 53 57 82t44 106
q12 33 42 33q11 0 21.5 -5t14.5 -6q18 -3 24 -9.5t6 -18.5q0 -16 -7 -30q-56 -123 -70 -220q-8 -51 -8 -57q0 -18 9 -40.5t9 -36.5q0 -29 -32 -29q-11 0 -20.5 2.5t-16.5 6t-9 3.5q-17 4 -24 16.5t-7 48.5q0 10 1 20t1 16l1 7q0 5 -2 5z" />
    <glyph glyph-name="paragraph" unicode="&#xb6;" horiz-adv-x="384" 
d="M294 459q-13 37 -32 70q-13 23 -63 87q-23 29 -23 54q0 9 4 16q2 3 4.5 11.5t4.5 11.5q4 5 11 13.5t23.5 20.5t31.5 12q14 0 23 -9q8 -8 8 -15q0 -5 -7 -17.5t-7 -21.5q0 -16 18 -44q5 -8 23.5 -34t32.5 -47q35 -54 44 -85q20 -71 20 -141q0 -186 -114 -300l-9 -9
l-10.5 -10.5t-10.5 -9.5t-12 -9.5l-12 -7.5t-14 -7t-14 -4t-16 -2q-38 0 -70 17q-12 7 -27.5 13.5t-20.5 10t-12 11t-13 21.5q-17 38 -17 95q0 52 23.5 112.5t43.5 83.5q7 8 38 49q40 52 93 52q30 0 54 -17q7 -5 9 -5t2 4q0 9 -7 30zM299 286q-13 6 -13 17q0 5 -7 30
q-9 32 -17 32q-17 0 -33 -26q-54 -88 -70 -126.5t-16 -97.5q0 -14 4 -27t8.5 -19.5t7.5 -6.5q13 0 35 21q46 43 72 103t29 100z" />
    <glyph glyph-name="periodcentered" unicode="&#xb7;" horiz-adv-x="478" 
d="M108 -104q3 0 82.5 7t126.5 7q11 0 39.5 5t46.5 5q54 0 61 -22q5 -15 5 -25q0 -8 -4 -15.5t-11 -16t-9 -12.5q-8 -15 -21 -15q-4 0 -49 1t-65 1q-23 0 -127 -9t-165 -9q-42 0 -57 4q-22 7 -31 21q-4 7 -11.5 26t-7.5 25q0 11 11 23t31.5 27.5t27.5 22.5q39 37 157 139.5
t149 133.5q41 41 41 46q0 4 -7 15q-106 144 -161 224q-20 29 -25 42.5t-5 31.5q0 3 27 57q3 7 27 11q30 6 102 6q23 0 68.5 -0.5t64.5 -0.5q68 0 82 7q8 4 27 4q43 0 57 -18q3 -3 3 -8v-4q0 -1 2 -3q4 -4 4 -9t-5 -14.5t-5 -14.5q0 -29 -120 -29q-4 0 -62.5 1.5t-85.5 1.5
q-52 0 -56 -2t-4 -8q0 -7 66.5 -99t101.5 -135q12 -15 16.5 -25t7.5 -14q6 -8 6 -20q0 -32 -22 -58l-10.5 -10.5t-18 -17.5t-16.5 -16q-55 -55 -150.5 -135.5t-116.5 -99.5q-25 -23 -25 -26q0 -4 13 -4z" />
    <glyph glyph-name="uni00B9" unicode="&#xb9;" horiz-adv-x="576" 
d="M514 382q7 -7 7 -18q0 -7 -8 -26q-4 -9 -25.5 -55t-28.5 -72q-3 -11 -11.5 -34.5t-14 -43t-5.5 -36.5q0 -45 12 -45q19 0 53 38t48 38q1 0 15 3t24 3q37 0 37 -26q0 -23 -20 -43q-6 -6 -28.5 -30.5t-34.5 -33.5q-37 -27 -70 -27q-18 0 -37 6q-52 16 -79 44.5t-27 77.5
q0 43 31 131q7 20 65 143q0 4 -3 4l-37 -4q-37 -4 -49 -4q-6 0 -8 -6q-5 -20 -20 -59t-29 -72t-15 -37q-2 -6 -9 -18t-8 -17q-3 -15 -21.5 -64.5t-23.5 -74.5q-1 -3 -1.5 -10t-1.5 -11t-4 -9t-8.5 -7.5t-14.5 -2.5q-5 0 -13.5 -4t-15.5 -4t-20.5 5.5t-21.5 7.5q-17 4 -17 24
q0 17 7 33q15 36 41.5 104.5t43.5 107.5q10 24 18.5 47t11.5 29q7 17 7 21q0 3 -3 3q-7 0 -19 -7q-20 -11 -33 -11q-22 0 -29 1q-37 5 -44 26q0 1 -6.5 6t-6.5 15q0 6 1.5 12.5t4 12t2.5 6.5q3 11 20 11q12 0 35.5 3t45.5 7t23 4q121 16 215 21q30 2 85 8t84 6q64 0 78 -19
q2 -3 3 -8.5t2 -7.5q7 -8 7 -14q0 -5 -5 -14t-5 -12q-1 -10 -15 -12q-4 0 -13.5 0.5t-15.5 0.5q-16 0 -53.5 -2t-43.5 -2q-9 0 -9 -2q0 -1 4 -5z" />
    <glyph glyph-name="ordmasculine" unicode="&#xba;" horiz-adv-x="320" 
d="M573 721q-3 -1 -8 -3t-11.5 -3.5t-16.5 -1.5q-6 0 -23.5 2t-30.5 2q-34 0 -54 -16t-31 -52q-16 -48 -95.5 -295t-124.5 -378q-2 -6 -10.5 -33.5t-13.5 -40.5t-19 -36.5t-31 -35.5t-45.5 -22t-64.5 -10q-20 0 -43 3q-2 0 -34.5 0.5t-49.5 6t-17 18.5q0 11 6.5 27t7.5 21
q6 22 53 22q14 0 33 -4t27 -4q34 0 48.5 13.5t26.5 49.5q54 157 128 398q22 71 48 144.5t47 139.5q32 101 76 138t117 37q5 0 19 -0.5t24 -0.5q4 0 18.5 1.5t22.5 1.5q14 0 21.5 -1.5t10 -3.5t7.5 -8q11 -15 11 -27q0 -8 -7 -28q-6 -17 -22 -21z" />
    <glyph glyph-name="guillemotright" unicode="&#xbb;" horiz-adv-x="442" 
d="M327 342q-81 -75 -117 -75q-24 0 -60 18t-47 47q-5 12 -5 30q0 54 75 154q10 13 38 39.5t81.5 57.5t98.5 31q32 0 58 -16q15 -9 24.5 -18.5t18.5 -14.5q3 -2 12 -4t15 -7q15 -12 15 -23q0 -5 -3 -9t-8 -9.5t-7 -9.5q-2 -2 -5.5 -7.5t-3.5 -6.5q-24 -33 -44.5 -79.5
t-20.5 -87.5q0 -31 14 -53q7 -12 7 -14q0 -18 -17 -21q-3 -1 -10.5 -3t-14.5 -3.5t-13 -1.5q-59 0 -59 87q0 13 -4 13q-3 0 -18 -14zM302 153q-1 0 -68.5 -1t-129.5 -1q-40 0 -55 6.5t-20 29.5q-1 3 -4.5 13t-3.5 23q0 14 10 17.5t39 3.5q5 0 14.5 -2t13.5 -2q15 0 34 -3
t33 -3q2 0 92 3t150 3q16 0 26 -3t12.5 -6t5.5 -8.5t4 -7.5q10 -12 10 -24q0 -20 -7 -29q-7 -10 -48 -10q-6 0 -43 0.5t-65 0.5zM387 564q-58 -16 -109.5 -73.5t-74.5 -110.5q-7 -16 -7 -20q0 -3 3 -3q5 0 21 11q47 31 100 77.5t61 68.5q4 11 25 36q8 9 8 14q0 4 -6 4
q-5 0 -21 -4z" />
    <glyph glyph-name="questiondown" unicode="&#xbf;" horiz-adv-x="406" 
d="M398 456q20 20 38 20q9 0 21 -9q20 -16 20 -37q0 -6 -3 -9t-11.5 -8t-15.5 -10q-17 -13 -17 -19q0 -1 1.5 -8.5t1.5 -16.5q0 -17 -3 -35q-14 -85 -47.5 -157.5t-66.5 -115.5q-9 -11 -21 -23t-39 -26.5t-54 -14.5q-23 0 -51 11.5t-41 21.5q-8 6 -10 6q-3 0 -6 -3
q-28 -25 -51 -25q-9 0 -17 9q-3 3 -10 20.5t-7 19.5q0 7 6 12.5t17 12t15 9.5q10 7 10 10q0 2 -3 11.5t-6 25.5t-3 35q0 88 82 199q9 13 21 27.5t15 18.5q71 94 129 94q41 0 79 -38q5 -5 8.5 -7t4.5 -3q3 -3 6 -3t8 5zM173 210q20 22 151 166q9 10 9 13q0 1 -3 3
q-13 5 -20 18q-4 7 -6 7q-9 0 -24 -19q-52 -63 -78.5 -104t-44.5 -87q-3 -7 -3 -10q0 -2 2 -2q3 0 17 15zM298 244q-5 -6 -59.5 -65.5t-58.5 -64.5q-6 -7 -16 -17q-8 -8 -8 -13q0 -6 8 -11.5t13 -5.5q26 0 41 19q53 64 89 154q4 10 4 13q0 2 -2 2q-1 0 -11 -11z" />
    <glyph glyph-name="Agrave" unicode="&#xc0;" horiz-adv-x="360" 
d="M94 14q-54 30 -54 76q0 40 41 89q10 12 35.5 37.5l31.5 31.5q89 84 89 109q0 13 -23 13q-20 0 -35 -9t-31 -9q-10 0 -24 5t-18 16q-1 2 -5 9.5t-4 11.5q0 19 23.5 36t76.5 17q54 0 96 -23q49 -27 49 -68q0 -37 -22 -67.5t-110 -110.5q-67 -60 -67 -92q0 -9 9.5 -15
t15.5 -6q36 0 36 34q0 4 -0.5 10.5t-0.5 9.5q0 26 34 26q31 0 50 -23q13 -17 13 -36q0 -33 -26 -64.5t-88 -31.5q-49 0 -92 24zM290 647q19 0 52 -23t33 -36q0 -25 -10 -36q-25 -27 -54 -27q-16 0 -31 6.5t-20 14.5q-2 3 -8 8.5t-9.5 11t-3.5 10.5q0 10 5 28q3 12 6 18.5
t13.5 15.5t26.5 9z" />
    <glyph glyph-name="Aacute" unicode="&#xc1;" horiz-adv-x="320" 
d="M70 31q0 35 11 66q4 11 15 22q3 3 7 19q14 58 41 141t49 161q7 23 27 23q7 0 22 -4q20 -5 34.5 -24.5t14.5 -31.5q0 -11 -7 -30q-4 -10 -5 -18.5t-4 -19.5q-49 -154 -60 -205q-12 -56 -15 -65q-27 -81 -28 -86q-2 -12 -27 -12q-16 0 -24.5 3.5t-16 10t-13.5 9.5
q-21 10 -21 41zM318 639q11 -1 23.5 -10.5t12.5 -23.5q0 -12 -11 -38q-9 -22 -21 -29t-43 -7q-34 0 -46 24q-8 16 -8 33q0 21 15 49q7 12 23 12q12 0 30 -5t25 -5z" />
    <glyph glyph-name="Acircumflex" unicode="&#xc2;" horiz-adv-x="590" 
d="M442 243q4 16 4 22t-10 6q-2 0 -25 1t-60.5 2t-75.5 1q-27 0 -52.5 -3t-60.5 -3t-38 11q0 1 -2 6.5t-2 9.5q0 25 18 55q4 8 22 10t77 2q95 0 151 -1l56 -2q22 0 36 0.5t19.5 1t8.5 0.5q17 0 34 -13q18 -14 18 -29q0 -3 -3.5 -12.5t-4.5 -12.5q-24 -100 -30 -119
q-1 -4 -7 -32q-4 -21 -11 -25t-38 -4q-2 0 -11 -1t-15 -1q-29 0 -29 23q0 8 9 35q17 51 22 72z" />
    <glyph glyph-name="Atilde" unicode="&#xc3;" horiz-adv-x="574" 
d="M322 124q14 22 38 66l145 257q33 59 112 189q6 10 12.5 12.5t22.5 2.5h24q60 0 60 -18q0 -24 -21 -45t-25 -28q-34 -60 -83 -143l-252 -431q-9 -14 -24.5 -15.5t-20.5 -4.5q-8 -5 -18 -5q-30 0 -67 33q-18 16 -18 26q0 47 -3 74q-4 42 -6.5 106.5t-4.5 92.5q-2 32 -5 38
t-17 6h-17q-55 0 -68 17q-2 2 -8 6.5t-6 10.5q0 7 3 26t7 22q5 4 20 4q8 0 24.5 -1.5t21.5 -1.5q6 0 23.5 1t28.5 1q49 0 65 -20q26 -32 26 -53q0 -5 5 -119.5t5 -115.5q0 -10 4 -10t17 20z" />
    <glyph glyph-name="Adieresis" unicode="&#xc4;" horiz-adv-x="420" 
d="M-40 -100q32 0 59 29q22 25 51 94q12 28 89 230q4 11 4 15t-3 6q-2 1 -18 7t-26.5 15.5t-10.5 23.5q0 3 -1 11t-1 12q0 22 22 22q9 0 37 -2.5t29 -2.5q9 0 12 9q23 60 52 132q72 177 233 177q39 0 75 -9q17 -5 18 -17l2.5 -10t1.5 -7q0 -14 -7.5 -29t-19.5 -16
q-14 -1 -21 -5t-17 -4q-6 0 -26 2.5t-23 2.5q-65 0 -118 -135q-27 -70 -27 -80q0 -6 8 -6l32 3q32 3 44 3q27 0 35 -4q11 -5 16.5 -11t9 -14t6.5 -12q5 -7 5 -17q0 -22 -18 -22q-30 0 -83 -10t-85 -10q-7 0 -10 -6q-87 -232 -129 -318q-9 -18 -24.5 -38.5t-41.5 -45
t-64.5 -40.5t-81.5 -16q-4 0 -23.5 1.5t-29.5 1.5q-70 0 -70 24q0 10 7.5 24.5t9.5 20.5q8 26 64 26q35 0 45.5 -2.5t11.5 -2.5z" />
    <glyph glyph-name="Aring" unicode="&#xc5;" horiz-adv-x="590" 
d="M128 328q-11 19 -11 26q0 12 14 17l41 16q66 27 111 27q29 0 54 -10t39.5 -22.5t33 -22.5t35.5 -10q18 0 47 15.5t54 15.5q19 0 32.5 -10.5t14.5 -19.5q0 -3 5 -10t5 -11q0 -9 -15 -15q-4 -2 -27.5 -13.5t-40 -19t-43 -14.5t-48.5 -7q-33 0 -59 16t-46 32t-38 16
q-21 0 -55 -15t-45 -15q-3 0 -9 1t-8 1q-17 0 -25 4q-6 3 -8 6.5t-3.5 10t-4.5 11.5zM110 180q-9 27 -9 36q0 20 22 25q10 2 18 6l8 4q5 2 18.5 4.5t22.5 5.5q44 17 78 17q33 0 62.5 -16t53 -32.5t41.5 -16.5q19 0 48 15.5t59 15.5q17 0 28 -6.5t11 -15.5q0 -6 2.5 -17
t2.5 -15q0 -8 -5 -12t-14.5 -7.5t-10.5 -3.5q-83 -43 -132 -43q-34 0 -61 17t-48.5 33.5t-40.5 16.5q-17 0 -50.5 -18.5t-59.5 -18.5q-35 0 -44 26z" />
    <glyph glyph-name="AE" unicode="&#xc6;" horiz-adv-x="600" 
d="M536 698q1 0 7.5 -2t9.5 -4.5t3 -7.5q0 -16 -7 -130q-5 -87 -5 -158q0 -177 27 -327q3 -18 8 -19q17 -5 20 -25q3 -21 3 -29q0 -2 -0.5 -4l-1 -4t-2.5 -3.5t-3.5 -3t-5.5 -3.5t-7 -4t-9 -5t-11 -6q-14 -8 -36 -8t-33 1q-7 1 -44 4.5t-76 7t-62 4.5q-11 0 -79 2t-104 3
q-16 1 -48 1q-36 0 -45 4q-15 6 -22.5 28.5t-7.5 45.5q0 13 2.5 19.5t15.5 19.5q25 25 68 101q142 251 308 484q17 24 28 24q5 0 31.5 4t41.5 4q11 0 17 -1.5t8 -3.5l4.5 -4.5t6.5 -4.5zM448 59q6 0 6 4q0 3 -3 32q-14 143 -14 448q0 13 -3 13q-4 0 -25 -33
q-95 -152 -167 -277q-93 -163 -93 -169q0 -4 7 -5q12 -2 78 -2q111 0 192 -9q18 -2 22 -2z" />
    <glyph glyph-name="Ccedilla" unicode="&#xc7;" horiz-adv-x="410" 
d="M102 276q-10 13 -10 44q0 20 17 38l65 74q31 35 39 41.5t19 6.5q34 0 41 -21q1 -3 6.5 -9.5t10 -14.5t4.5 -17q0 -8 -4 -14t-17.5 -17.5t-19.5 -17.5l-45 -44q-8 -8 -8 -13q0 -4 3 -10q35 -64 42 -70q11 -10 11 -39q0 -12 -5 -19q-6 -8 -9 -11.5t-11.5 -6.5t-21.5 -3
q-23 0 -38 30q-2 4 -18 25t-33 43.5t-18 24.5zM318 183l-63 93q-8 11 -8 25q0 8 4 22q5 17 17 29l77 84q28 31 37 37t25 6q35 0 45 -35q1 -3 6.5 -11t5.5 -14q0 -9 -7 -16q-9 -9 -19 -16t-21 -17l-50 -45q-9 -9 -9 -14q0 -4 5 -14q12 -27 37 -77q4 -8 4 -22q0 -18 -15 -28
q-4 -3 -8 -6.5t-6.5 -5.5t-7 -3.5t-9.5 -1.5q-9 0 -14 2q-7 2 -12 7t-9 12.5t-5 8.5z" />
    <glyph glyph-name="Egrave" unicode="&#xc8;" horiz-adv-x="410" 
d="M245 182q-1 1 -4.5 6.5t-3.5 9.5q0 8 4 12l93 99q5 7 5 13q0 4 -3 9q-7 9 -12 25q-2 5 -8.5 16t-8.5 16q-2 6 -12 18t-10 18q0 5 5.5 11.5t14.5 15t13 14.5q9 12 34 12q28 0 37 -16q29 -53 55 -112q7 -15 7 -26q0 -27 -21 -48l-102 -101q-22 -21 -49 -21q-4 0 -8 1t-7 2
t-5.5 3.5t-4 4.5t-3.5 5t-2.5 4.5t-2.5 4.5zM292 313q0 -21 -23 -42l-118 -107q-13 -13 -27 -13q-11 0 -29 11q-13 9 -13 27q0 21 11 34l84 85q6 6 6 13q0 5 -4 12l-25 48q-5 10 -10 18.5t-7 12t-3.5 7.5t-1.5 8q0 3 7 14.5t21 23.5t27 12q2 0 10 2.5t13 2.5q20 0 28 -19
l47 -113q7 -16 7 -37z" />
    <glyph glyph-name="Eacute" unicode="&#xc9;" horiz-adv-x="710" 
d="M162 -2q-2 0 -16.5 -4t-25.5 -4q-20 0 -38 14q-30 25 -30 46q0 26 8 37t9 16q5 20 14 29t31 9q13 0 23.5 -3t15 -5.5t12 -9t9.5 -7.5l6 -4q6 -4 8.5 -7t6 -12.5t3.5 -23.5q0 -25 -10 -47.5t-26 -23.5zM274 62q0 53 43 75q10 5 24 5q23 0 40 -9.5t23.5 -18t14.5 -22.5
q4 -7 4 -18q0 -18 -11.5 -35t-11.5 -20q-2 -9 -13 -18.5t-25 -9.5q-38 0 -61 16q-27 18 -27 55zM553 141q39 0 63 -21t24 -52q0 -33 -30 -67q-9 -11 -44 -11q-22 0 -42 14q-28 19 -28 68q0 25 5 37q2 4 5 7.5t7 8.5t7 8q6 8 33 8z" />
    <glyph glyph-name="Ecircumflex" unicode="&#xca;" horiz-adv-x="246" 
 />
    <glyph glyph-name="Edieresis" unicode="&#xcb;" 
d="M325 167q-78 -30 -155 -47q-9 -2 -13 -11q-17 -45 -17 -96q0 -6 1 -16.5t1 -12.5q0 -6 -7 -10q-3 -2 -10 -8.5t-15 -10.5t-16 -4q-9 0 -19 5l-12 6q-16 8 -24 21t-9 23t-1 30q0 30 9 71q2 9 2 12q0 2 -6 6q-30 17 -30 33q0 30 15 55q6 9 18 9q13 0 32 -10q6 -3 8 -3
q3 0 9 11q150 271 274 451q11 17 44 20q2 0 10.5 2t17.5 3t17 1q26 0 40 -11q4 -3 8 -11.5t4 -11.5q0 -8 -7 -48t-7 -46q0 -14 -3 -32q-5 -29 -10 -83.5t-8 -95t-3 -46.5q0 -9 5 -9l5 1q5 0 12 1t14 1q56 0 78 -25q8 -9 8 -16q0 -6 -5 -13q-22 -29 -70 -29q-36 0 -48 -12
q-4 -4 -6 -22q-6 -66 -6 -163q0 -27 5 -47t9.5 -30t4.5 -12q0 -14 -12 -26t-26 -12q-44 0 -66 22q-8 8 -14 46.5t-6 75.5q0 24 2.5 71t2.5 50q0 9 -3 9q-8 0 -22 -6zM369 521q-84 -141 -154 -281q-7 -14 -7 -17t5 -3q18 0 68 19l64 24q8 3 8 12q0 8 14 123t14 122
q0 12 -2 12q-3 0 -10 -11zM418 868q9 -8 47 -35l85 -59q29 -20 29 -30q0 -3 -3 -14t-3 -17q0 -7 -7.5 -12t-15.5 -5q-23 0 -43 14l-100 64q-26 16 -50 26q-9 4 -14 10.5t-5.5 12t-0.5 17.5q0 13 12 29.5t30 16.5q7 0 13 -3l7 -3q4 0 19 -12z" />
    <glyph glyph-name="Igrave" unicode="&#xcc;" 
d="M325 167q-78 -30 -155 -47q-9 -2 -13 -11q-17 -45 -17 -96q0 -6 1 -16.5t1 -12.5q0 -6 -7 -10q-3 -2 -10 -8.5t-15 -10.5t-16 -4q-9 0 -19 5l-12 6q-16 8 -24 21t-9 23t-1 30q0 30 9 71q2 9 2 12q0 2 -6 6q-30 17 -30 33q0 30 15 55q6 9 18 9q13 0 32 -10q6 -3 8 -3
q3 0 9 11q150 271 274 451q11 17 44 20q2 0 10.5 2t17.5 3t17 1q26 0 40 -11q4 -3 8 -11.5t4 -11.5q0 -8 -7 -48t-7 -46q0 -14 -3 -32q-5 -29 -10 -83.5t-8 -95t-3 -46.5q0 -9 5 -9l5 1q5 0 12 1t14 1q56 0 78 -25q8 -9 8 -16q0 -6 -5 -13q-22 -29 -70 -29q-36 0 -48 -12
q-4 -4 -6 -22q-6 -66 -6 -163q0 -27 5 -47t9.5 -30t4.5 -12q0 -14 -12 -26t-26 -12q-44 0 -66 22q-8 8 -14 46.5t-6 75.5q0 24 2.5 71t2.5 50q0 9 -3 9q-8 0 -22 -6zM369 521q-84 -141 -154 -281q-7 -14 -7 -17t5 -3q18 0 68 19l64 24q8 3 8 12q0 8 14 123t14 122
q0 12 -2 12q-3 0 -10 -11zM441 774q-8 13 -17 13q-11 0 -33 -14q-7 -4 -20 -4q-17 0 -32 6.5t-15 17.5q0 4 -4 17.5t-4 19.5q0 12 12 17l62 23q29 10 46 10q33 0 67 -48q16 -23 30 -23q11 0 30 8q23 10 46 10q28 0 33 -25q1 -4 3 -11t2 -10q0 -8 -11 -15q-2 -1 -11.5 -7.5
t-15.5 -10.5t-17 -10t-20 -9.5t-21 -6t-23 -2.5q-34 0 -61 22q-10 8 -26 32z" />
    <glyph glyph-name="Iacute" unicode="&#xcd;" horiz-adv-x="490" 
d="M368 536q-6 0 -24 -19q-102 -108 -143 -241q-17 -55 -17 -127q0 -45 19 -73q13 -20 31 -20q35 0 58 34q42 64 83 171.5t41 185.5q0 71 -34 81q-6 2 -9.5 5t-4.5 3zM456 598q72 -64 72 -171q0 -35 -10 -77q-50 -209 -131 -312q-18 -23 -57 -43t-86 -20q-35 0 -68 11
q-16 5 -34.5 20.5t-29.5 31.5q-33 48 -33 115q0 97 30 177.5t89 168.5q47 70 84 98q47 36 66 36q12 0 31 -8q29 -12 43 -14q23 -3 34 -13zM405 716q-8 13 -17 13q-11 0 -33 -14q-7 -4 -20 -4q-17 0 -32 6.5t-15 17.5q0 4 -4 17.5t-4 19.5q0 12 12 17l62 23q29 10 46 10
q33 0 67 -48q16 -23 30 -23q11 0 30 8q23 10 46 10q28 0 33 -25q1 -4 3 -11t2 -10q0 -8 -11 -15q-2 -1 -11.5 -7.5t-15.5 -10.5t-17 -10t-20 -9.5t-21 -6t-23 -2.5q-34 0 -61 22q-10 8 -26 32z" />
    <glyph glyph-name="Icircumflex" unicode="&#xce;" horiz-adv-x="754" 
d="M559 384q79 27 121 27q30 0 66 -13q25 -9 25 -28q0 -50 -47 -50q-5 0 -15 1t-17 1q-25 0 -57.5 -9t-69.5 -23t-50 -18q-15 -4 -20 -19q-20 -56 -64 -161q-5 -12 -5 -15q0 -5 8 -5q10 0 41 6q86 17 138 44q3 2 16.5 9.5t24 12.5t25.5 11.5t29.5 10t27.5 3.5q18 0 29 -6
q31 -18 31 -42q0 -15 -13 -25q-8 -6 -24.5 -14t-22.5 -11q-38 -20 -143 -56t-180 -36q-22 0 -36.5 3.5t-21 6.5t-7.5 3q-5 0 -34.5 -8.5t-63.5 -8.5q-50 0 -74 13q-90 50 -90 164q0 179 119 347q48 68 88.5 100.5t67.5 32.5q93 0 133 -37l12 -9q3 0 5.5 1t12 4.5t24.5 8.5
q162 54 279 54q7 0 18 -2t13 -2q70 -8 70 -54q0 -8 -5 -23q-5 -13 -25 -13q-8 0 -35.5 4t-45.5 4q-103 0 -234 -52q-13 -5 -16.5 -9t-5.5 -14l-19 -91q-3 -15 -3 -19t3 -4q2 0 17 5zM437 485q-16 8 -24.5 27t-8.5 32q0 7 -8 7q-9 0 -24 -14q-118 -109 -165 -268
q-14 -47 -14 -120q0 -8 1 -19.5t5 -30.5t14.5 -31.5t26.5 -12.5q64 0 133 179q10 26 10 30q0 3 -4 10q-10 16 -10 44q0 12 27 16q10 1 14 11q10 25 19 56t13 50.5t4 23.5q0 5 -9 10z" />
    <glyph glyph-name="Idieresis" unicode="&#xcf;" horiz-adv-x="572" 
d="M276 62q-42 -63 -99 -63q-19 0 -31 5q-44 18 -68.5 45t-29.5 48.5t-5 50.5q0 99 103 250l6 8q5 8 9 13.5l12 16.5t16 18.5t18 17.5t20.5 17t22.5 13.5t25 10t26 3.5q38 0 73 -29q9 -7 15 -14t9 -11t4.5 -7t2.5 -4t3 -1t3.5 2t7 7.5t13.5 12.5q55 47 126 47q32 0 59.5 -16
t27.5 -55q0 -58 -44 -118q-106 -144 -227 -213q-7 -4 -7 -11q0 -9 10.5 -20.5t15.5 -11.5q13 0 39 12q45 21 121.5 82.5t78.5 62.5q11 7 27 7q18 0 31.5 -8.5t14.5 -23.5q1 -11 -9.5 -22.5t-61.5 -57.5q-42 -38 -94 -74t-86 -51q-11 -5 -31 -5q-46 0 -109 40q-16 10 -24 26
q-3 6 -6 6q-4 0 -8 -6zM289 422q-3 0 -19 -20q-45 -57 -89 -134t-44 -131q0 -15 4.5 -27.5t10 -18t8.5 -5.5q11 0 52 57q39 56 72 125.5t33 116.5q0 15 -2 19t-13 9q-4 2 -6 4.5t-3 3.5t-4 1zM409 247q27 25 60.5 66.5t42.5 51.5q35 39 35 67q0 6 -7 6q-9 0 -21 -10
q-81 -66 -131 -167q-13 -26 -13 -32q0 -4 4 -4q6 0 30 22z" />
    <glyph glyph-name="Eth" unicode="&#xd0;" horiz-adv-x="590" 
d="M561 294q0 -35 -8 -52q-5 -11 -42 -11q-1 0 -93 -3.5t-151 -3.5q-107 0 -127 10q-28 14 -28 69q0 19 40 19q5 0 26 -2t56 -3.5t74 -1.5q31 0 72 2t62 2q9 0 29 2.5t31 2.5q39 0 55 -20q4 -5 4 -10z" />
    <glyph glyph-name="Ntilde" unicode="&#xd1;" horiz-adv-x="670" 
d="M745 291q0 -27 -8 -51q-3 -9 -15 -9h-663q-14 0 -23 11q-10 13 -10 59q0 7 1 10t8 6t21 3h660q11 0 24 -13q5 -5 5 -16z" />
    <glyph glyph-name="Ograve" unicode="&#xd2;" horiz-adv-x="350" 
d="M140 458q7 12 20.5 34t24 40t18.5 34q20 39 38 81q10 25 38 25q27 0 50 -28q17 -21 17 -30q0 -7 -4 -13q-29 -42 -49 -83l-50 -96q-4 -8 -17.5 -15.5t-28.5 -7.5q-8 0 -20.5 3.5t-16.5 3.5q-14 0 -23 10t-9 20q0 4 1.5 6.5t4.5 7t6 8.5zM283 429l60 105q44 78 49 90
q8 19 34 19q6 0 13.5 -1t21 -5t22.5 -15t9 -28q0 -14 -6.5 -31t-10.5 -22q-20 -24 -34 -47l-60 -101q-13 -21 -39 -21q-6 0 -14 1.5t-15 3.5t-9 2q-14 2 -21 11.5t-7 17.5t7 21z" />
    <glyph glyph-name="Oacute" unicode="&#xd3;" horiz-adv-x="350" 
d="M140 458q7 12 20.5 34t24 40t18.5 34q20 39 38 81q10 25 38 25q27 0 50 -28q17 -21 17 -30q0 -7 -4 -13q-29 -42 -49 -83l-50 -96q-4 -8 -17.5 -15.5t-28.5 -7.5q-8 0 -20.5 3.5t-16.5 3.5q-14 0 -23 10t-9 20q0 4 1.5 6.5t4.5 7t6 8.5zM283 429l60 105q44 78 49 90
q8 19 34 19q6 0 13.5 -1t21 -5t22.5 -15t9 -28q0 -14 -6.5 -31t-10.5 -22q-20 -24 -34 -47l-60 -101q-13 -21 -39 -21q-6 0 -14 1.5t-15 3.5t-9 2q-14 2 -21 11.5t-7 17.5t7 21z" />
    <glyph glyph-name="Ocircumflex" unicode="&#xd4;" horiz-adv-x="192" 
d="M122 429l60 105q44 78 49 90q8 19 34 19q6 0 13.5 -1t21 -5t22.5 -15t9 -28q0 -14 -6.5 -31t-10.5 -22q-20 -24 -34 -47l-60 -101q-13 -21 -39 -21q-6 0 -14 1.5t-15 3.5t-9 2q-14 2 -21 11.5t-7 17.5t7 21z" />
    <glyph glyph-name="Otilde" unicode="&#xd5;" horiz-adv-x="192" 
d="M122 429l60 105q44 78 49 90q8 19 34 19q6 0 13.5 -1t21 -5t22.5 -15t9 -28q0 -14 -6.5 -31t-10.5 -22q-20 -24 -34 -47l-60 -101q-13 -21 -39 -21q-6 0 -14 1.5t-15 3.5t-9 2q-14 2 -21 11.5t-7 17.5t7 21z" />
    <glyph glyph-name="Odieresis" unicode="&#xd6;" horiz-adv-x="590" 
d="M355 511q22 0 51 -22t29 -34q0 -15 -4 -35t-19 -41.5t-38 -21.5q-17 0 -51 15.5t-34 38.5q0 17 4 30.5t12.5 30.5t12.5 27q4 12 37 12zM324 163q20 -19 27.5 -31t7.5 -30q0 -33 -12.5 -49t-49.5 -16q-10 0 -17.5 1.5t-13 4.5t-8 5.5t-7 7.5t-7.5 8q-4 4 -9.5 9t-8 7.5
t-5.5 6.5t-4 8t-1 10q0 9 4 26.5t18 37t35 19.5q25 0 51 -25zM560 295q0 -35 -8 -52q-5 -11 -42 -11q-1 0 -93 -3.5t-151 -3.5q-107 0 -127 10q-28 14 -28 69q0 19 40 19q5 0 26 -1.5t56 -3.5t74 -2q31 0 72 2t62 2q9 0 29 2.5t31 2.5q39 0 55 -20q4 -5 4 -10z" />
    <glyph glyph-name="multiply" unicode="&#xd7;" horiz-adv-x="590" 
d="M419 556q-15 -19 -49 -59.5t-61.5 -76t-58.5 -81.5q-9 -13 -9 -21t5 -28q34 -139 44 -184q2 -6 3 -15q1 -6 4 -6q2 0 7 5q26 26 73 90q42 58 88 126q14 21 14 32q0 13 -2 21q-21 76 -39 193q-3 16 -6 16q-4 0 -13 -12zM513 678q1 0 8.5 -3t10.5 -6t3 -9q0 -59 16 -139
q39 -197 39 -214q0 -13 -8.5 -32.5t-20.5 -31.5q-17 -17 -42.5 -49.5t-72 -96.5t-69.5 -94q-19 -26 -36 -26q-21 0 -29 -4.5t-24 -4.5q-60 0 -80 17q-14 13 -14 32q0 5 0.5 12t0.5 9q0 29 -11 66q-31 104 -48 188q-3 14 -9 19q-9 6 -9 20q0 16 12 36t20 28q4 4 16.5 12.5
t16.5 14.5q47 64 182 231q1 1 5 7t7.5 11t9.5 9.5t11 4.5q9 0 34 3.5t38 3.5q9 0 16.5 -1.5t11 -3.5t8.5 -5t7 -4z" />
    <glyph glyph-name="Oslash" unicode="&#xd8;" horiz-adv-x="436" 
d="M152 114q4 0 12 5q38 25 64 56q5 6 16.5 17.5t19.5 21.5q6 7 25.5 28t32 36.5t32 50t35.5 77.5q11 34 36 34q6 0 18 -4.5t22 -5.5q25 -2 34 -17q7 -11 7 -21q0 -22 -19 -50q-17 -24 -24 -35q-32 -51 -59 -126q-5 -15 -28.5 -79.5t-25.5 -68.5q-8 -23 -8 -26q0 -4 6 -5
q22 -6 22 -22q0 -11 -8 -22q-83 -111 -117 -276q0 -2 -3 -18t-4.5 -22t-5.5 -20.5t-8.5 -21.5t-11 -16t-15.5 -13.5t-20 -5.5q-27 -3 -35 -3q-18 0 -32 9q-18 12 -18 41q0 30 19 73q41 93 84 168q6 30 62 207q5 17 5 18q0 4 -3 4t-26 -18q-45 -36 -64 -36q-71 0 -111 46
q-9 10 -9 35q0 63 39 174q4 11 29 74.5t35 99.5q3 12 15.5 22.5t27.5 10.5q7 0 12 -1q37 -6 46 -13q14 -9 14 -28q0 -16 -11 -36q-3 -6 -12.5 -18t-12.5 -19q-15 -33 -25.5 -62t-23.5 -73.5t-20 -64.5q-13 -41 -13 -57q0 -4 3 -4zM347 649q11 -19 11 -35q0 -13 -10.5 -29
t-10.5 -19q-1 -6 -15.5 -13.5t-32.5 -7.5q-29 0 -43 21q-11 16 -11 24q0 10 1 18q3 25 13 41q12 20 44 20q42 0 54 -20zM474 617q17 0 34.5 -7.5t20.5 -19.5q1 -5 6.5 -17.5t5.5 -21.5q0 -10 -10.5 -26.5t-19.5 -21.5q-10 -5 -30 -5q-37 0 -44 21q-1 4 -11 18t-10 28
t10 33.5t29 19.5q1 0 8 -0.5t11 -0.5z" />
    <glyph glyph-name="Ugrave" unicode="&#xd9;" horiz-adv-x="502" 
d="M326 190q-42 -28 -83 -28q-17 0 -28 5q-35 16 -62 40q-42 37 -42 61q0 25 6 105q0 3 2 14t2 21q0 13 5 27.5t5 18.5q2 23 18 107t29 106q5 9 20 9q11 0 33.5 -4.5t26.5 -4.5q14 -1 20.5 -14.5t6.5 -23.5q0 -15 -10 -38t-12 -33q-34 -170 -40 -238q-5 -54 -5 -64
q0 -12 5 -12q8 0 19 7q83 52 127 105t90 140q32 60 32 61q20 35 34 53q7 8 15 8q48 0 74 -28q13 -15 13 -32q0 -7 -6 -15q-201 -280 -277 -850q-4 -33 -8 -38q-2 -3 -10 -3q-2 0 -32 5q-55 9 -60 35q-3 15 -3 29q0 18 3.5 38t10.5 46.5t9 35.5q2 10 5.5 30.5t5.5 28.5
q17 91 67 264q8 28 8 30t-2 2q-3 0 -12 -6zM405 819q11 -19 11 -35q0 -13 -10.5 -29t-10.5 -19q-1 -6 -15.5 -13.5t-32.5 -7.5q-29 0 -43 21q-11 16 -11 24q0 10 1 18q3 25 13 41q12 20 44 20q42 0 54 -20zM532 787q17 0 34.5 -7.5t20.5 -19.5q1 -5 6.5 -17.5t5.5 -21.5
q0 -10 -10.5 -26.5t-19.5 -21.5q-10 -5 -30 -5q-36 0 -44 21q-1 4 -11 18t-10 28t10 33.5t29 19.5q1 0 8 -0.5t11 -0.5z" />
    <glyph glyph-name="Uacute" unicode="&#xda;" horiz-adv-x="330" 
d="M502 623q0 -15 -4 -22t-12 -10.5t-10 -6.5q-4 -5 -17.5 -15.5t-17.5 -16.5q-52 -68 -102 -145t-111 -178.5t-100 -161.5q-62 -96 -84 -96q-44 0 -61 25q-6 9 -6 26q0 27 16 33q11 5 47 60l298 460q30 46 62 76q26 25 49 25q18 0 41 -17q12 -10 12 -36z" />
    <glyph glyph-name="Ucircumflex" unicode="&#xdb;" horiz-adv-x="508" 
d="M310 478q8 2 25 2q32 0 54 -8q17 -6 20 -6t9 7q39 45 100 88q16 11 37 11q19 0 33 -10t14 -25q0 -8 -7 -31q-6 -17 -24 -25q-14 -6 -43.5 -29.5t-40.5 -34.5q-5 -5 -5 -8q0 -1 3 -9q14 -36 14 -64q0 -41 -19.5 -84.5t-44.5 -68.5q-6 -6 -6 -10t17 -50.5t23 -51.5
q10 -9 10 -23q0 -9 -3.5 -14t-15 -10.5t-15.5 -8.5q-9 -6 -19 -6q-16 0 -33 11q-28 19 -28 37q0 12 -21 67q-3 9 -9 9l-6 -1q-6 -2 -17 -3t-24 -1q-29 0 -52 9q-10 4 -12 4q-3 0 -12 -9q-108 -108 -129 -108q-25 0 -40.5 13t-15.5 28q0 10 8 28.5t20 20.5q7 1 53 43t46 51
q0 3 -4 11q-11 22 -11 49q0 43 22 89t49 73q4 4 4 7q0 1 -3 9q-31 73 -31 117q0 24 13 38.5t35 14.5q17 0 32 -9q17 -10 21.5 -18t4.5 -27q2 -8 2 -18v-11q0 -19 10 -43q5 -12 12 -12zM244 244q0 -4 5 -7q10 -6 16 -22q1 -2 2 -9t3.5 -11.5t9.5 -4.5q10 0 20 5q14 7 26.5 18
t18 18t16.5 23.5t14 20.5q23 33 23 73q0 13 -6 19q-4 4 -11.5 11t-10.5 10q-4 4 -4.5 11.5t-2.5 9.5t-13 2q-34 0 -69 -56q-37 -57 -37 -111z" />
    <glyph glyph-name="Udieresis" unicode="&#xdc;" horiz-adv-x="255" 
d="M130 225l-36 51q-7 10 -7 42q0 17 13 30l74 82q32 35 42 42.5t22 7.5q31 0 37 -20q1 -4 5.5 -9.5t5.5 -7.5q10 -20 10 -27q0 -3 -1 -6.5t-2 -6t-4 -5.5l-5 -5t-6.5 -6t-7 -5.5t-8 -6t-8.5 -6.5q-15 -11 -30.5 -26t-22.5 -20q-5 -5 -5 -11q0 -5 4 -14q24 -56 33 -68
q10 -13 10 -35q0 -14 -4 -19q-6 -8 -10 -12.5t-13 -8t-22 -3.5q-24 0 -33 27q0 1 -31 46z" />
    <glyph glyph-name="Yacute" unicode="&#xdd;" horiz-adv-x="255" 
d="M87 182q-1 1 -4.5 6.5t-3.5 9.5q0 8 4 12l93 99q5 7 5 13q0 4 -3 9q-7 9 -12 25q-2 5 -8.5 16t-8.5 16q-2 6 -12 18t-10 18q0 5 5.5 11.5t14.5 15t13 14.5q9 12 34 12q28 0 37 -16q29 -53 55 -112q7 -15 7 -26q0 -27 -21 -48l-102 -101q-22 -21 -49 -21q-4 0 -8 1t-7 2
t-5.5 3.5t-4 4.5t-3.5 5t-2.5 4.5t-2.5 4.5z" />
    <glyph glyph-name="Thorn" unicode="&#xde;" horiz-adv-x="488" 
d="M411 431q19 12 30 30q18 30 57 30q29 0 46 -12q11 -7 11 -25t-13.5 -42.5t-30.5 -48t-20 -30.5q-32 -74 -58 -139q-23 -57 -23 -97q0 -20 8 -20q12 0 57 32q32 23 53 23q47 0 47 -29q0 -16 -16 -31l-41 -38q-51 -48 -101 -48q-39 0 -67 32q-37 42 -37 96q0 35 16 81
q3 8 8.5 24.5t8.5 24.5q15 36 25 58q8 17 8 21t-4 4q-5 0 -15 -5q-24 -12 -43 -16q-10 -2 -21 -8q-4 -2 -22.5 -8t-31.5 -13t-16 -16q-4 -12 -25.5 -73.5t-28.5 -86t-21.5 -73.5t-21.5 -90t-10 -83q-2 -21 -31 -32q-31 -11 -40 -11q-15 0 -29 12q-16 14 -16 45q0 27 15.5 73
t21.5 76q5 28 43 141q34 102 34 117q0 8 -21 29.5t-25 34.5q-5 17 -5 25q0 24 23 24q11 0 18 -3q30 -11 38 -11t16 19q95 227 154 323q6 10 23 17.5t36 7.5q23 0 40.5 -14.5t17.5 -32.5q0 -12 -14 -29t-15 -27t-5 -19q-11 -24 -54 -78.5t-52 -88.5q-4 -15 -11 -31
q-2 -6 -7.5 -17t-9 -18.5t-3.5 -9.5q0 -4 3 -4q20 0 84 27q45 19 63 31zM585 704q39 0 58 -19q13 -13 13 -35q0 -15 -6 -21q-1 -1 -10.5 -12t-17 -17.5t-19.5 -13.5t-23 -7q-21 0 -36 9t-20 18q-8 15 -8 36q0 27 13 43q16 19 56 19z" />
    <glyph glyph-name="germandbls" unicode="&#xdf;" horiz-adv-x="500" 
d="M315 717q12 20 56 20q26 0 43.5 -13.5t17.5 -36.5q0 -39 -45 -90q-28 -31 -55 -74t-36 -66q-8 -22 -15 -35q-20 -35 -20 -45q0 -4 3 -4q19 0 77 24q75 31 102 76q88 144 103 169q1 2 10.5 28t23 42.5t34.5 16.5q7 0 18 0.5t16 0.5q34 0 42 -17q9 -20 9 -31q0 -19 -11 -36
q-23 -36 -67.5 -103.5t-71 -109t-58.5 -101t-53 -113.5q-3 -8 -12.5 -30t-13 -32.5t-7.5 -31t-4 -42.5t9 -22q3 0 8 3q21 14 48.5 43.5t49.5 48t45 18.5q15 0 32.5 -8.5t17.5 -23.5q0 -5 -2 -9.5t-3.5 -6.5t-7 -7t-6.5 -6q-2 -3 -24 -29.5t-40 -46t-47.5 -37.5t-55.5 -18
q-9 0 -18 2q-52 11 -83 44q-24 25 -24 67q0 13 2 28t3.5 23.5t8 27.5t8 22.5t10.5 27.5l9 23q9 23 16 38q13 28 13 33q0 4 -4 4q-6 0 -16 -5t-28.5 -10.5t-25.5 -8.5q-4 -2 -22.5 -8t-31.5 -13t-16 -16q-4 -12 -25.5 -73.5t-28.5 -86t-21.5 -73.5t-21.5 -90t-10 -83
q-2 -21 -31 -32q-31 -11 -40 -11q-15 0 -29 12q-16 14 -16 45q0 27 15.5 73t21.5 76q5 28 43 141q34 102 34 117q0 8 -21 29.5t-25 34.5q-5 17 -5 25q0 24 23 24q11 0 18 -3q30 -11 38 -11t16 19q95 227 154 323z" />
    <glyph glyph-name="agrave" unicode="&#xe0;" horiz-adv-x="570" 
d="M371 257q31 0 74.5 4.5t51.5 4.5q24 0 40 -16q12 -12 12 -24q0 -7 -6.5 -21.5t-6.5 -23.5q0 -7 -6 -10q-5 -2 -39 -2q-94 0 -141 -7q-11 -2 -14 -4t-7 -14q-10 -27 -16.5 -49t-7.5 -24l-10 -30t-6 -20l-3 -12q-1 -2 -3.5 -13.5t-5 -20t-6 -18.5t-8 -17t-9.5 -9
q-8 -4 -16 -4q-21 0 -31 19q-3 5 -18 11.5t-15 24.5q0 13 17 64q3 8 8 31.5t12 45.5q7 21 7 24q0 5 -4 5q-44 0 -68 3q-3 0 -25 1t-28 2q-30 6 -30 45v12q0 6 4 13.5t4 8.5q3 15 23 15q13 0 61 -4t74 -4q13 0 17 3q3 2 14 38l19 64q7 24 7 30q0 4 -7 4q-105 0 -126 13
q-19 8 -19 53q0 19 5 22q3 3 5 3q10 14 27 14q7 0 17 -3q9 -3 12 -3l56 -4q2 0 22 -1.5t30 -1.5q9 0 13 2t16 36l31 87q17 48 23 53q4 3 15 4.5t16 4.5q10 6 25 6q18 0 33.5 -9t15.5 -18q0 -2 1.5 -7t1.5 -8q0 -11 -12 -50q-3 -9 -14 -25q-12 -17 -20 -37q-7 -20 -7 -23
t4 -3q6 0 48 6t67 6q63 0 63 -37q0 -10 -8 -25t-9 -21q-3 -12 -19 -12q-27 0 -71.5 -4t-48.5 -4q-46 0 -62 -8q-15 -8 -30 -73q-9 -32 -13 -44q-3 -9 -3 -12t7 -3z" />
    <glyph glyph-name="aacute" unicode="&#xe1;" horiz-adv-x="344" 
d="M229 360q38 0 53 -21q19 -26 19 -49q0 -33 -23 -68q-18 -28 -53 -28q-19 0 -44.5 7.5t-37.5 20.5q-11 13 -11 57q0 42 13 55q11 11 35.5 18.5t48.5 7.5z" />
    <glyph glyph-name="acircumflex" unicode="&#xe2;" horiz-adv-x="192" 
d="M-56 -106l60 105q44 78 49 90q8 19 34 19q6 0 13.5 -1t21 -5t22.5 -15t9 -28q0 -14 -6.5 -31t-10.5 -22q-20 -24 -34 -47l-60 -101q-13 -21 -39 -21q-6 0 -14 1.5t-15 3.5t-9 2q-14 2 -21 11.5t-7 17.5t7 21z" />
    <glyph glyph-name="atilde" unicode="&#xe3;" horiz-adv-x="350" 
d="M-42 -84q7 12 20.5 34t24 40t18.5 34q20 39 38 81q10 25 38 25q27 0 50 -28q17 -21 17 -30q0 -7 -4 -13q-29 -42 -49 -83l-50 -96q-4 -8 -17.5 -15.5t-28.5 -7.5q-8 0 -20.5 3.5t-16.5 3.5q-14 0 -23 10t-9 20q0 4 1.5 6.5t4.5 7t6 8.5zM101 -113l60 105q44 78 49 90
q8 19 34 19q6 0 13.5 -1t21 -5t22.5 -15t9 -28q0 -14 -6.5 -31t-10.5 -22q-20 -24 -34 -47l-60 -101q-13 -21 -39 -21q-6 0 -14 1.5t-15 3.5t-9 2q-14 2 -21 11.5t-7 17.5t7 21z" />
    <glyph glyph-name="adieresis" unicode="&#xe4;" horiz-adv-x="1080" 
d="M392 636q27 -7 44 -31.5t17 -59.5q0 -101 -64 -180q-43 -53 -98 -53q-77 0 -120 64q-28 41 -28 79t37 114q8 15 21.5 33t44 38t63.5 20q24 0 51 -11.5t32 -12.5zM714 607q0 -24 -14 -29q-5 -2 -12 -9q-4 -4 -17 -15t-18 -17q-51 -67 -98 -140t-103.5 -167.5t-96.5 -157.5
q-62 -96 -84 -96q-31 0 -49 11q-21 13 -21 32q0 23 3 30t22 20q11 8 42 58l274 434q18 28 48 61q36 40 61 40q29 0 49 -17q14 -12 14 -38zM679 313q32 -12 54.5 -40t22.5 -61q0 -85 -57 -172q-35 -53 -109 -53q-72 0 -108 40q-37 42 -37 75q0 47 38 134q6 13 19 31
t41.5 38.5t58.5 20.5q40 0 77 -13zM973 309q42 -10 66.5 -40.5t24.5 -61.5q0 -99 -60 -180q-30 -40 -99 -40q-19 0 -30.5 1.5t-29.5 8.5t-38 21q-50 34 -50 93q0 47 36 119q11 24 32 48t40 35q17 10 50 10q15 0 25 -1.5t14 -4t9 -5t10 -3.5zM345 576q-11 6 -15 16q-2 5 -4 5
q-5 0 -15 -15q-21 -33 -31 -51t-22 -48.5t-12 -55.5q0 -48 25 -48q12 0 27 26q56 96 56 146q0 9 -2 17q-2 5 -7 8zM633 264q-6 0 -8.5 -2t-9.5 -13q-66 -102 -66 -159q0 -44 22 -44q17 0 27 23q1 2 9 17t15 30t15 34t13 38t5 34q0 17 -7.5 29.5t-14.5 12.5zM934 252
q-4 0 -12 -9q-21 -24 -41 -71t-20 -76q0 -31 5 -40.5t15 -9.5q8 0 19 13t15 22q12 27 25 52t14 26q10 22 10 45q0 10 -3 20q-2 8 -7 10q-10 5 -15 13q-3 5 -5 5z" />
    <glyph glyph-name="aring" unicode="&#xe5;" 
d="M325 167q-78 -30 -155 -47q-9 -2 -13 -11q-17 -45 -17 -96q0 -6 1 -16.5t1 -12.5q0 -6 -7 -10q-3 -2 -10 -8.5t-15 -10.5t-16 -4q-9 0 -19 5l-12 6q-16 8 -24 21t-9 23t-1 30q0 30 9 71q2 9 2 12q0 2 -6 6q-30 17 -30 33q0 30 15 55q6 9 18 9q13 0 32 -10q6 -3 8 -3
q3 0 9 11q150 271 274 451q11 17 44 20q2 0 10.5 2t17.5 3t17 1q26 0 40 -11q4 -3 8 -11.5t4 -11.5q0 -8 -7 -48t-7 -46q0 -14 -3 -32q-5 -29 -10 -83.5t-8 -95t-3 -46.5q0 -9 5 -9l5 1q5 0 12 1t14 1q56 0 78 -25q8 -9 8 -16q0 -6 -5 -13q-22 -29 -70 -29q-36 0 -48 -12
q-4 -4 -6 -22q-6 -66 -6 -163q0 -27 5 -47t9.5 -30t4.5 -12q0 -14 -12 -26t-26 -12q-44 0 -66 22q-8 8 -14 46.5t-6 75.5q0 24 2.5 71t2.5 50q0 9 -3 9q-8 0 -22 -6zM369 521q-84 -141 -154 -281q-7 -14 -7 -17t5 -3q18 0 68 19l64 24q8 3 8 12q0 8 14 123t14 122
q0 12 -2 12q-3 0 -10 -11zM475 783q-4 0 -11 -3q-77 -34 -87 -44q-4 -4 -12 -4t-14.5 2.5t-12 7t-7.5 5.5q-13 7 -13 32q0 9 1 15t2.5 8t4 5t3.5 4q6 9 58 27l88 31q10 3 20 3q26 0 32 -12q1 -2 5 -5.5t7 -9.5l59 -101q12 -21 12 -27q0 -5 -3 -9t-7.5 -7.5t-5.5 -4.5
q-11 -13 -23 -13q-20 0 -36 21l-54 74q-3 5 -6 5z" />
    <glyph glyph-name="ae" unicode="&#xe6;" horiz-adv-x="508" 
d="M437 764q-5 6 -8 6q-2 0 -11 -6q-60 -43 -86 -69q-10 -10 -26 -10q-6 0 -10.5 1t-6 2.5t-4 3.5t-5.5 3q-23 8 -23 39q0 12 2 17t5.5 8t4.5 5q4 11 54 42l89 56q14 8 31 8q15 0 23 -8t11 -12l59 -86q12 -18 12 -25l-10 -22q-6 -14 -23 -14q-6 0 -19 5q-12 5 -21 15z
M332 416q47 18 92 18q51 0 89 -23q20 -12 20 -37q0 -11 -22 -17.5t-34 -6.5q-6 0 -17 1.5t-15 1.5q-27 0 -53 -6.5t-57.5 -19t-50.5 -17.5q-27 -7 -31 -18q0 -1 -22.5 -51.5t-35.5 -89.5t-13 -66q0 -29 12 -29q28 0 69 18q17 8 38 16t27 11q9 4 42 24t65 34.5t56 14.5
q8 0 14 -2q7 -2 15 -10q3 -3 12.5 -9.5t15 -12.5t5.5 -13q0 -9 -12 -14q-13 -5 -19 -11q-15 -15 -27 -21q-62 -33 -94 -48.5t-98.5 -34t-132.5 -18.5q-14 0 -45.5 14t-45.5 34q-10 14 -10 45q0 48 23 123q5 16 11.5 33.5t15 38.5t12.5 33q-13 15 -13 34q0 8 4.5 13.5
t19.5 9.5q14 4 18 7t9 15q20 46 33 82q5 14 5 17q0 4 -3 4q-1 0 -3.5 -0.5t-7 -1t-9.5 -0.5q-16 0 -32 13q-24 20 -24 46q0 11 11 14q41 11 177 60q45 16 125 34t138 18q36 0 52 -8q24 -12 39.5 -28.5t15.5 -31.5q0 -19 -21 -20q-8 -1 -16 -4t-11 -3q-4 0 -21 6.5t-35 6.5
q-63 0 -220 -47q-8 -2 -11 -11q-14 -38 -32 -84q-11 -28 -11 -31q0 -2 2 -2q3 0 22 7z" />
    <glyph glyph-name="ccedilla" unicode="&#xe7;" 
d="M325 167q-78 -30 -155 -47q-9 -2 -13 -11q-17 -45 -17 -96q0 -6 1 -16.5t1 -12.5q0 -6 -7 -10q-3 -2 -10 -8.5t-15 -10.5t-16 -4q-9 0 -19 5l-12 6q-16 8 -24 21t-9 23t-1 30q0 30 9 71q2 9 2 12q0 2 -6 6q-30 17 -30 33q0 30 15 55q6 9 18 9q13 0 32 -10q6 -3 8 -3
q3 0 9 11q150 271 274 451q11 17 44 20q2 0 10.5 2t17.5 3t17 1q26 0 40 -11q4 -3 8 -11.5t4 -11.5q0 -8 -7 -48t-7 -46q0 -14 -3 -32q-5 -29 -10 -83.5t-8 -95t-3 -46.5q0 -9 5 -9l5 1q5 0 12 1t14 1q56 0 78 -25q8 -9 8 -16q0 -6 -5 -13q-22 -29 -70 -29q-36 0 -48 -12
q-4 -4 -6 -22q-6 -66 -6 -163q0 -27 5 -47t9.5 -30t4.5 -12q0 -14 -12 -26t-26 -12q-44 0 -66 22q-8 8 -14 46.5t-6 75.5q0 24 2.5 71t2.5 50q0 9 -3 9q-8 0 -22 -6zM369 521q-84 -141 -154 -281q-7 -14 -7 -17t5 -3q18 0 68 19l64 24q8 3 8 12q0 8 14 123t14 122
q0 12 -2 12q-3 0 -10 -11zM348 807l61 24q74 30 89 43q6 6 20 6q21 0 35 -14q13 -13 13 -36q0 -15 -5 -25q-10 -17 -80 -38l-99 -30q-13 -4 -26 -4q-14 0 -22 5q-9 6 -19.5 18.5t-10.5 19.5q0 10 6 17t15 7q4 0 23 7z" />
    <glyph glyph-name="egrave" unicode="&#xe8;" horiz-adv-x="508" 
d="M332 416q47 18 92 18q51 0 89 -23q20 -12 20 -37q0 -11 -22 -17.5t-34 -6.5q-6 0 -17 1.5t-15 1.5q-27 0 -53 -6.5t-57.5 -19t-50.5 -17.5q-27 -7 -31 -18q0 -1 -22.5 -51.5t-35.5 -89.5t-13 -66q0 -29 12 -29q28 0 69 18q17 8 38 16t27 11q9 4 42 24t65 34.5t56 14.5
q8 0 14 -2q7 -2 15 -10q3 -3 12.5 -9.5t15 -12.5t5.5 -13q0 -9 -12 -14q-13 -5 -19 -11q-15 -15 -27 -21q-62 -33 -94 -48.5t-98.5 -34t-132.5 -18.5q-14 0 -45.5 14t-45.5 34q-10 14 -10 45q0 48 23 123q5 16 11.5 33.5t15 38.5t12.5 33q-13 15 -13 34q0 8 4.5 13.5
t19.5 9.5q14 4 18 7t9 15q20 46 33 82q5 14 5 17q0 4 -3 4q-1 0 -3.5 -0.5t-7 -1t-9.5 -0.5q-16 0 -32 13q-24 20 -24 46q0 11 11 14q41 11 177 60q45 16 125 34t138 18q36 0 52 -8q24 -12 39.5 -28.5t15.5 -31.5q0 -19 -21 -20q-8 -1 -16 -4t-11 -3q-4 0 -21 6.5t-35 6.5
q-63 0 -220 -47q-8 -2 -11 -11q-14 -38 -32 -84q-11 -28 -11 -31q0 -2 2 -2q3 0 22 7zM364 820q11 -19 11 -35q0 -13 -10.5 -29t-10.5 -19q-1 -6 -15.5 -13.5t-32.5 -7.5q-29 0 -43 21q-11 16 -11 24q0 10 1 18q3 25 13 41q12 20 44 20q42 0 54 -20zM506 830q17 0 34.5 -7.5
t20.5 -19.5q1 -5 6.5 -17.5t5.5 -21.5q0 -10 -10.5 -26.5t-19.5 -21.5q-10 -5 -30 -5q-37 0 -44 21q-1 4 -11 18t-10 28t10 33.5t29 19.5q1 0 8 -0.5t11 -0.5z" />
    <glyph glyph-name="eacute" unicode="&#xe9;" horiz-adv-x="508" 
d="M332 416q47 18 92 18q51 0 89 -23q20 -12 20 -37q0 -11 -22 -17.5t-34 -6.5q-6 0 -17 1.5t-15 1.5q-27 0 -53 -6.5t-57.5 -19t-50.5 -17.5q-27 -7 -31 -18q0 -1 -22.5 -51.5t-35.5 -89.5t-13 -66q0 -29 12 -29q28 0 69 18q17 8 38 16t27 11q9 4 42 24t65 34.5t56 14.5
q8 0 14 -2q7 -2 15 -10q3 -3 12.5 -9.5t15 -12.5t5.5 -13q0 -9 -12 -14q-13 -5 -19 -11q-15 -15 -27 -21q-62 -33 -94 -48.5t-98.5 -34t-132.5 -18.5q-14 0 -45.5 14t-45.5 34q-10 14 -10 45q0 48 23 123q5 16 11.5 33.5t15 38.5t12.5 33q-13 15 -13 34q0 8 4.5 13.5
t19.5 9.5q14 4 18 7t9 15q20 46 33 82q5 14 5 17q0 4 -3 4q-1 0 -3.5 -0.5t-7 -1t-9.5 -0.5q-16 0 -32 13q-24 20 -24 46q0 11 11 14q41 11 177 60q45 16 125 34t138 18q36 0 52 -8q24 -12 39.5 -28.5t15.5 -31.5q0 -19 -21 -20q-8 -1 -16 -4t-11 -3q-4 0 -21 6.5t-35 6.5
q-63 0 -220 -47q-8 -2 -11 -11q-14 -38 -32 -84q-11 -28 -11 -31q0 -2 2 -2q3 0 22 7zM326 862q9 -8 47 -35l85 -59q29 -20 29 -30q0 -3 -3 -14t-3 -17q0 -7 -7.5 -12t-15.5 -5q-23 0 -43 14l-100 64q-26 16 -50 26q-9 4 -14 10.5t-5.5 12t-0.5 17.5q0 13 12 29.5t30 16.5
q7 0 13 -3l7 -3q4 0 19 -12z" />
    <glyph glyph-name="ecircumflex" unicode="&#xea;" horiz-adv-x="254" 
d="M132 -28q-3 0 -10.5 -9t-16.5 -9q-7 0 -14.5 5.5t-9.5 5.5q-5 1 -10.5 4t-11 7t-7.5 5l-3 1q-3 1 -5.5 2t-4.5 4t-2 7q0 7 6 36t12 39q4 7 8 23q17 69 40 140.5t52.5 157t46.5 137.5q4 12 13.5 29.5t25.5 65.5q5 16 40 16q29 0 55.5 -11t26.5 -27q0 -23 -4 -32.5
t-14 -19.5t-17 -24l-4 -6q-3 -6 -5 -11q-26 -71 -90 -252.5t-64 -199.5q0 -2 1 -6.5t1 -8.5q0 -21 -7.5 -44t-27.5 -25zM312 761l61 24q74 30 89 43q6 6 20 6q21 0 35 -14q13 -13 13 -36q0 -15 -5 -25q-10 -17 -80 -38l-99 -30q-13 -4 -26 -4q-14 0 -22 5q-9 6 -19.5 18.5
t-10.5 19.5q0 10 6 17t15 7q4 0 23 7z" />
    <glyph glyph-name="edieresis" unicode="&#xeb;" horiz-adv-x="254" 
d="M132 -28q-3 0 -10.5 -9t-16.5 -9q-7 0 -14.5 5.5t-9.5 5.5q-5 1 -10.5 4t-11 7t-7.5 5l-3 1q-3 1 -5.5 2t-4.5 4t-2 7q0 7 6 36t12 39q4 7 8 23q17 69 40 140.5t52.5 157t46.5 137.5q4 12 13.5 29.5t25.5 65.5q5 16 40 16q29 0 55.5 -11t26.5 -27q0 -23 -4 -32.5
t-14 -19.5t-17 -24l-4 -6q-3 -6 -5 -11q-26 -71 -90 -252.5t-64 -199.5q0 -2 1 -6.5t1 -8.5q0 -21 -7.5 -44t-27.5 -25zM361 763q-4 0 -11 -3q-77 -34 -87 -44q-4 -4 -12 -4t-14.5 2.5t-12 7t-7.5 5.5q-13 7 -13 32q0 9 1 15t2.5 8t4 5t3.5 4q6 9 58 27l88 31q10 3 20 3
q26 0 32 -12q1 -2 5 -5.5t7 -9.5l59 -101q12 -21 12 -27q0 -5 -3 -9t-7.5 -7.5t-5.5 -4.5q-11 -13 -23 -13q-20 0 -36 21l-54 74q-3 5 -6 5z" />
    <glyph glyph-name="igrave" unicode="&#xec;" horiz-adv-x="254" 
d="M132 -28q-3 0 -10.5 -9t-16.5 -9q-7 0 -14.5 5.5t-9.5 5.5q-5 1 -10.5 4t-11 7t-7.5 5l-3 1q-3 1 -5.5 2t-4.5 4t-2 7q0 7 6 36t12 39q4 7 8 23q17 69 40 140.5t52.5 157t46.5 137.5q4 12 13.5 29.5t25.5 65.5q5 16 40 16q29 0 55.5 -11t26.5 -27q0 -23 -4 -32.5
t-14 -19.5t-17 -24l-4 -6q-3 -6 -5 -11q-26 -71 -90 -252.5t-64 -199.5q0 -2 1 -6.5t1 -8.5q0 -21 -7.5 -44t-27.5 -25zM309 815q11 -19 11 -35q0 -13 -10.5 -29t-10.5 -19q-1 -6 -15.5 -13.5t-32.5 -7.5q-29 0 -43 21q-11 16 -11 24q0 10 1 18q3 25 13 41q12 20 44 20
q42 0 54 -20zM436 783q17 0 34.5 -7.5t20.5 -19.5q1 -5 6.5 -17.5t5.5 -21.5q0 -10 -10.5 -26.5t-19.5 -21.5q-10 -5 -30 -5q-37 0 -44 21q-1 4 -11 18t-10 28t10 33.5t29 19.5q1 0 8 -0.5t11 -0.5z" />
    <glyph glyph-name="iacute" unicode="&#xed;" horiz-adv-x="254" 
d="M132 -28q-3 0 -10.5 -9t-16.5 -9q-7 0 -14.5 5.5t-9.5 5.5q-5 1 -10.5 4t-11 7t-7.5 5l-3 1q-3 1 -5.5 2t-4.5 4t-2 7q0 7 6 36t12 39q4 7 8 23q17 69 40 140.5t52.5 157t46.5 137.5q4 12 13.5 29.5t25.5 65.5q5 16 40 16q29 0 55.5 -11t26.5 -27q0 -23 -4 -32.5
t-14 -19.5t-17 -24l-4 -6q-3 -6 -5 -11q-26 -71 -90 -252.5t-64 -199.5q0 -2 1 -6.5t1 -8.5q0 -21 -7.5 -44t-27.5 -25zM256 838q9 -8 47 -35l85 -59q29 -20 29 -30q0 -3 -3 -14t-3 -17q0 -7 -7.5 -12t-15.5 -5q-23 0 -43 14l-100 64q-26 16 -50 26q-9 4 -14 10.5t-5.5 12
t-0.5 17.5q0 13 12 29.5t30 16.5q7 0 13 -3l7 -3q4 0 19 -12z" />
    <glyph glyph-name="icircumflex" unicode="&#xee;" horiz-adv-x="490" 
d="M368 536q-6 0 -24 -19q-102 -108 -143 -241q-17 -55 -17 -127q0 -45 19 -73q13 -20 31 -20q35 0 58 34q42 64 83 171.5t41 185.5q0 71 -34 81q-6 2 -9.5 5t-4.5 3zM456 598q72 -64 72 -171q0 -35 -10 -77q-50 -209 -131 -312q-18 -23 -57 -43t-86 -20q-35 0 -68 11
q-16 5 -34.5 20.5t-29.5 31.5q-33 48 -33 115q0 97 30 177.5t89 168.5q47 70 84 98q47 36 66 36q12 0 31 -8q29 -12 43 -14q23 -3 34 -13zM360 751l61 24q74 30 89 43q6 6 20 6q21 0 35 -14q13 -13 13 -36q0 -15 -5 -25q-10 -17 -80 -38l-99 -30q-13 -4 -26 -4q-14 0 -22 5
q-9 6 -19.5 18.5t-10.5 19.5q0 10 6 17t15 7q4 0 23 7z" />
    <glyph glyph-name="idieresis" unicode="&#xef;" horiz-adv-x="490" 
d="M368 536q-6 0 -24 -19q-102 -108 -143 -241q-17 -55 -17 -127q0 -45 19 -73q13 -20 31 -20q35 0 58 34q42 64 83 171.5t41 185.5q0 71 -34 81q-6 2 -9.5 5t-4.5 3zM456 598q72 -64 72 -171q0 -35 -10 -77q-50 -209 -131 -312q-18 -23 -57 -43t-86 -20q-35 0 -68 11
q-16 5 -34.5 20.5t-29.5 31.5q-33 48 -33 115q0 97 30 177.5t89 168.5q47 70 84 98q47 36 66 36q12 0 31 -8q29 -12 43 -14q23 -3 34 -13zM445 743q-4 0 -11 -3q-77 -34 -87 -44q-4 -4 -12 -4t-14.5 2.5t-12 7t-7.5 5.5q-13 7 -13 32q0 9 1 15t2.5 8t4 5t3.5 4q6 9 58 27
l88 31q10 3 20 3q26 0 32 -12q1 -2 5 -5.5t7 -9.5l59 -101q12 -21 12 -27q0 -5 -3 -9t-7.5 -7.5t-5.5 -4.5q-11 -13 -23 -13q-20 0 -36 21l-54 74q-3 5 -6 5z" />
    <glyph glyph-name="eth" unicode="&#xf0;" horiz-adv-x="656" 
d="M452 540l4 -17q8 -33 36 -128q4 -14 17 -14q73 0 77 3q16 11 35 11q11 0 27.5 -0.5t25.5 -0.5q19 0 22 -9q5 -11 6 -16q3 -12 3 -20t-2.5 -17t-2.5 -12q0 -4 -15 -16q-13 -10 -53 -38.5t-65 -47.5q-10 -8 -10 -11q0 -4 10 -33q53 -152 54 -155q3 -14 3 -15q0 -6 -4 -9
q-9 -7 -16 -7q-1 0 -8.5 -3.5t-21.5 -3.5q-32 0 -50 18q-1 1 -3.5 4.5t-7.5 8.5q-13 13 -50 40l-59 43q-6 5 -11 5t-13 -6q-18 -13 -51 -35.5t-58.5 -39t-30.5 -21.5q-16 -13 -25 -13q-7 0 -17 3q-4 1 -13 3t-14 4q-13 6 -16 11t-4 6q-15 9 -15 14q0 10 19 55.5t24 47.5
q10 4 35 80q3 10 3 16q0 3 -10 10q-42 30 -100 69q-18 12 -21 28q0 3 -1 9t-1 9q-1 4 -1 9t2 13q5 16 18 16h21q17 0 27.5 -1t20.5 -1h54q7 0 24.5 -1t25.5 -1q10 0 14 10q40 96 56 133q5 10 7 14.5t5.5 7t7.5 2.5q11 0 19 5q7 5 26 5q36 0 41 -21z" />
    <glyph glyph-name="ntilde" unicode="&#xf1;" horiz-adv-x="490" 
d="M368 536q-6 0 -24 -19q-102 -108 -143 -241q-17 -55 -17 -127q0 -45 19 -73q13 -20 31 -20q35 0 58 34q42 64 83 171.5t41 185.5q0 71 -34 81q-6 2 -9.5 5t-4.5 3zM456 598q72 -64 72 -171q0 -35 -10 -77q-50 -209 -131 -312q-18 -23 -57 -43t-86 -20q-35 0 -68 11
q-16 5 -34.5 20.5t-29.5 31.5q-33 48 -33 115q0 97 30 177.5t89 168.5q47 70 84 98q47 36 66 36q12 0 31 -8q29 -12 43 -14q23 -3 34 -13zM366 822q9 -8 47 -35l85 -59q29 -20 29 -30q0 -3 -3 -14t-3 -17q0 -7 -7.5 -12t-15.5 -5q-23 0 -43 14l-100 64q-26 16 -50 26
q-9 4 -14 10.5t-5.5 12t-0.5 17.5q0 13 12 29.5t30 16.5q7 0 13 -3l7 -3q4 0 19 -12z" />
    <glyph glyph-name="ograve" unicode="&#xf2;" horiz-adv-x="600" 
d="M185 90q7 0 19 14q4 5 15 16q203 207 319 395q6 9 13 24t11 22q19 29 46 29q2 0 10.5 -1.5t13.5 -1.5q18 -2 27 -15l14 -21q6 -10 6 -17q0 -5 -1.5 -8.5t-4 -7.5t-3.5 -8q-7 -21 -28.5 -58.5t-30.5 -61.5q-70 -186 -70 -417q0 -15 -21 -15q-8 0 -13 1.5t-10 4t-8 3.5
q-7 2 -39 21q-20 12 -21 18q-1 2 -1 6q0 16 4 23q4 6 5 15q2 18 5.5 52t6.5 60.5t6 43.5t3 20q0 2 -2 2t-15 -16q-113 -136 -194 -205q-22 -19 -52 -19q-23 0 -43.5 13.5t-31.5 16.5q-30 8 -37 24q-5 12 -5 64q0 74 26 155q21 64 67 181t59 152q3 8 6 13.5t5 9t3 5.5
q15 30 36 30q7 0 11 -1t11.5 -5t15.5 -7q13 -5 21 -10.5t11.5 -12.5t4 -11.5t0.5 -14.5l-10 -25q-18 -45 -59 -133t-65.5 -154t-33.5 -130q-4 -27 -4 -52q0 -6 2 -6zM462 743l61 24q74 30 89 43q6 6 20 6q21 0 35 -14q13 -13 13 -36q0 -15 -5 -25q-10 -17 -80 -38l-99 -30
q-13 -4 -26 -4q-14 0 -22 5q-9 6 -19.5 18.5t-10.5 19.5q0 10 6 17t15 7q4 0 23 7z" />
    <glyph glyph-name="oacute" unicode="&#xf3;" horiz-adv-x="600" 
d="M185 90q7 0 19 14q4 5 15 16q203 207 319 395q6 9 13 24t11 22q19 29 46 29q2 0 10.5 -1.5t13.5 -1.5q18 -2 27 -15l14 -21q6 -10 6 -17q0 -5 -1.5 -8.5t-4 -7.5t-3.5 -8q-7 -21 -28.5 -58.5t-30.5 -61.5q-70 -186 -70 -417q0 -15 -21 -15q-8 0 -13 1.5t-10 4t-8 3.5
q-7 2 -39 21q-20 12 -21 18q-1 2 -1 6q0 16 4 23q4 6 5 15q2 18 5.5 52t6.5 60.5t6 43.5t3 20q0 2 -2 2t-15 -16q-113 -136 -194 -205q-22 -19 -52 -19q-23 0 -43.5 13.5t-31.5 16.5q-30 8 -37 24q-5 12 -5 64q0 74 26 155q21 64 67 181t59 152q3 8 6 13.5t5 9t3 5.5
q15 30 36 30q7 0 11 -1t11.5 -5t15.5 -7q13 -5 21 -10.5t11.5 -12.5t4 -11.5t0.5 -14.5l-10 -25q-18 -45 -59 -133t-65.5 -154t-33.5 -130q-4 -27 -4 -52q0 -6 2 -6zM513 761q-4 0 -11 -3q-77 -34 -87 -44q-4 -4 -12 -4t-14.5 2.5t-12 7t-7.5 5.5q-13 7 -13 32q0 9 1 15
t2.5 8t4 5t3.5 4q6 9 58 27l88 31q11 3 20 3q26 0 32 -12q1 -2 5 -5.5t7 -9.5l59 -101q12 -21 12 -27q0 -5 -3 -9t-7.5 -7.5t-5.5 -4.5q-11 -13 -23 -13q-20 0 -36 21l-54 74q-3 5 -6 5z" />
    <glyph glyph-name="ocircumflex" unicode="&#xf4;" horiz-adv-x="600" 
d="M185 90q7 0 19 14q4 5 15 16q203 207 319 395q6 9 13 24t11 22q19 29 46 29q2 0 10.5 -1.5t13.5 -1.5q18 -2 27 -15l14 -21q6 -10 6 -17q0 -5 -1.5 -8.5t-4 -7.5t-3.5 -8q-7 -21 -28.5 -58.5t-30.5 -61.5q-70 -186 -70 -417q0 -15 -21 -15q-8 0 -13 1.5t-10 4t-8 3.5
q-7 2 -39 21q-20 12 -21 18q-1 2 -1 6q0 16 4 23q4 6 5 15q2 18 5.5 52t6.5 60.5t6 43.5t3 20q0 2 -2 2t-15 -16q-113 -136 -194 -205q-22 -19 -52 -19q-23 0 -43.5 13.5t-31.5 16.5q-30 8 -37 24q-5 12 -5 64q0 74 26 155q21 64 67 181t59 152q3 8 6 13.5t5 9t3 5.5
q15 30 36 30q7 0 11 -1t11.5 -5t15.5 -7q13 -5 21 -10.5t11.5 -12.5t4 -11.5t0.5 -14.5l-10 -25q-18 -45 -59 -133t-65.5 -154t-33.5 -130q-4 -27 -4 -52q0 -6 2 -6zM448 828q9 -8 47 -35l85 -59q29 -20 29 -30q0 -3 -3 -14t-3 -17q0 -7 -7.5 -12t-15.5 -5q-23 0 -43 14
l-100 64q-26 16 -50 26q-9 4 -14 10.5t-5.5 12t-0.5 17.5q0 13 12 29.5t30 16.5q7 0 13 -3l7 -3q4 0 19 -12z" />
    <glyph glyph-name="otilde" unicode="&#xf5;" horiz-adv-x="220" 
d="M207 109q2 1 7.5 5t9.5 6.5t10 5.5t12.5 4.5t13.5 1.5q47 0 47 -29q0 -16 -16 -31l-41 -38q-54 -48 -101 -48q-39 0 -67 32q-37 42 -37 96q0 35 16 81q3 8 8.5 24.5t8.5 24.5q80 185 95 217q14 30 57 30q29 0 46 -12q11 -7 11 -25t-13.5 -42.5t-30.5 -48t-20 -30.5
q-32 -74 -58 -139q-23 -58 -23 -97q0 -20 8 -20q12 0 57 32z" />
    <glyph glyph-name="odieresis" unicode="&#xf6;" 
d="M421 775q-4 0 -11 -3q-77 -34 -87 -44q-4 -4 -12 -4t-14.5 2.5t-12 7t-7.5 5.5q-13 7 -13 32q0 9 1 15t2.5 8t4 5t3.5 4q6 9 58 27l88 31q10 3 20 3q26 0 32 -12q1 -2 5 -5.5t7 -9.5l59 -101q12 -21 12 -27q0 -5 -3 -9t-7.5 -7.5t-5.5 -4.5q-11 -13 -23 -13q-20 0 -36 21
l-54 74q-3 5 -6 5z" />
    <glyph glyph-name="divide" unicode="&#xf7;" 
d="M373 744q-8 13 -17 13q-11 0 -33 -14q-7 -4 -20 -4q-17 0 -32 6.5t-15 17.5q0 4 -4 17.5t-4 19.5q0 12 12 17l62 23q29 10 46 10q33 0 67 -48q16 -23 30 -23q11 0 30 8q23 10 46 10q28 0 33 -25q1 -4 3 -11t2 -10q0 -8 -11 -15q-2 -1 -11.5 -7.5t-15.5 -10.5t-17 -10
t-20 -9.5t-21 -6t-23 -2.5q-33 0 -61 22q-10 8 -26 32z" />
    <glyph glyph-name="oslash" unicode="&#xf8;" 
d="M287 799q9 0 45.5 -1.5t87.5 -1.5q24 0 70.5 1.5t57.5 1.5t16.5 -3t8 -9t4.5 -8q6 -6 6 -10q0 -1 -1 -5t-1 -7q0 -21 -5 -31q-7 -12 -26 -12q-4 0 -15.5 0.5t-19.5 0.5q-2 0 -49.5 -1t-81.5 -1q-88 0 -108 6q-31 9 -31 62q0 18 42 18z" />
    <glyph glyph-name="ugrave" unicode="&#xf9;" 
d="M351 853q7 -7 15.5 -23.5t8.5 -23.5q0 -17 10 -29q12 -15 29 -15t38.5 15t39 31.5t23.5 18.5t13 2q11 0 21 -6t11 -14q1 -6 6.5 -14t5.5 -14q0 -3 -1 -5t-2.5 -3t-4 -3.5t-4.5 -5.5q-20 -30 -60.5 -54t-83.5 -24q-35 0 -63 13.5t-43.5 35t-24 39.5t-12.5 34l-4 16
q0 5 5 12q5 6 16.5 9t15.5 8q9 9 21 9q15 0 24 -9z" />
    <glyph glyph-name="uacute" unicode="&#xfa;" 
d="M427 827q41 0 56.5 -18t15.5 -39q0 -13 -6 -20q-1 -1 -6.5 -7.5t-9.5 -11t-11.5 -11t-14 -11t-15 -7.5t-16.5 -3q-21 0 -36.5 9.5t-20.5 18.5q-8 16 -8 33q0 26 15 46q15 21 57 21z" />
    <glyph glyph-name="ucircumflex" unicode="&#xfb;" 
d="M423 858q39 0 66.5 -19.5t29.5 -34.5q2 -16 2 -26q0 -48 -24.5 -81t-65.5 -33q-48 0 -75 17q-40 24 -40 61q0 25 21 63t44 47q15 6 42 6zM434 799q-2 3 -3 3q-2 0 -7 -7q-21 -29 -21 -54q0 -22 8 -22q1 0 5 5q23 32 23 51q0 14 -5 24z" />
    <glyph glyph-name="udieresis" unicode="&#xfc;" horiz-adv-x="338" 
d="M44 -67q26 -7 29 -22q2 -10 18 -10q20 0 39.5 29.5t19.5 46.5q0 7 -4 15l-24 38h77l31 -48q10 -16 10 -35q0 -26 -17 -51q-20 -29 -41.5 -45.5t-57.5 -16.5q-32 0 -65 13q-35 13 -49 30.5t-14 29.5q0 16 10.5 23.5t18.5 7.5q1 0 19 -5z" />
    <glyph glyph-name="yacute" unicode="&#xfd;" 
d="M445 689q-37 9 -37 34q0 11 21 32q7 7 13 14.5t11 13.5l74 80q26 26 51 26q16 0 29 -14q4 -5 10.5 -11t9.5 -9t5.5 -9t2.5 -14q0 -7 -12 -21t-21 -18q-10 -4 -15 -9l-102 -92q-12 -11 -22 -11q-7 0 -13 4zM297 777q21 21 39 46l36 49q13 18 48 53q4 4 11 4q2 0 22 -5
q7 -2 30 -18q20 -15 20 -26q0 -6 -6.5 -16.5t-8.5 -15.5q-2 -7 -14 -11q-8 -3 -37 -36q-51 -58 -59 -69q-14 -19 -35 -19q-6 0 -18 4q-9 3 -12.5 8t-5 11.5t-3.5 9.5l-8 4q-9 5 -9 11t10 16z" />
    <glyph glyph-name="thorn" unicode="&#xfe;" horiz-adv-x="348" 
d="M194 31q-50 -60 -50 -100q0 -21 13 -21q7 0 17 4t28 4q42 0 42 -20q0 -7 -5.5 -16.5t-6.5 -13.5q-3 -14 -5 -16q-13 -18 -66 -18q-59 0 -81.5 27.5t-22.5 60.5q0 65 54 126h66z" />
    <glyph glyph-name="ydieresis" unicode="&#xff;" 
d="M336 867q1 0 8.5 1t10.5 1q22 0 25 -13q1 -10 34 -60q6 -9 11 -9q8 0 32 13l63 33q14 7 23 7q11 0 18.5 -7t7.5 -19q0 -4 0.5 -10t0.5 -9q0 -17 -24 -32l-110 -68q-5 -3 -9.5 -4.5t-5.5 -1.5q-6 -3 -12 -3q-21 0 -34 17l-48 69q-22 32 -22 53q0 18 18 36q6 6 13 6z" />
    <glyph glyph-name="OE" unicode="&#x152;" horiz-adv-x="408" 
d="M399 635q29 -5 51 -38q23 -36 23 -80q0 -97 -91 -204q-29 -34 -54 -43t-65 -9q-71 0 -109 49q-33 43 -33 93q0 53 56 148q62 105 160 105q30 0 49 -15q6 -5 13 -6zM138 149q-54 0 -81 6.5t-29 25.5q0 3 -4 15.5t-4 22.5q0 23 36 23q16 0 36 -4t59 -4q42 0 83.5 1t66 2.5
t25.5 1.5q86 0 86 -19q0 -2 -1 -4t-1 -3l4 -3q4 -3 8.5 -9t4.5 -13q0 -10 -13 -25q-6 -7 -14 -8.5t-36 -1.5q-15 0 -45 1t-44 1q-15 0 -54.5 -3t-82.5 -3zM345 584q-17 0 -35 -25q-89 -119 -89 -185q0 -20 8.5 -34.5t21.5 -14.5q18 0 41 35q1 1 7.5 11t12.5 19t15 23.5
t15.5 28.5t13 29t10 30t3.5 28q0 19 -12 36q-6 9 -8 14t-4 5z" />
    <glyph glyph-name="oe" unicode="&#x153;" horiz-adv-x="722" 
d="M78 7q-18 16 -18 43q0 17 7.5 21.5t30.5 4.5q12 0 41 -2t40 -2q16 0 16 3t-10 14q-70 78 -70 192q0 93 41 180.5t121.5 147.5t181.5 60q69 0 114 -14t79 -58q9 -11 25 -29t26 -32t18 -34q20 -49 20 -108q0 -80 -37 -162.5t-92 -130.5q-8 -7 -8 -10q0 -2 7 -2
q2 0 23.5 1.5t26.5 1.5q46 0 46 -19q0 -2 -1.5 -6.5t-1.5 -8.5q0 -1 1 -3.5t1 -4.5q0 -7 -5.5 -17.5t-6.5 -14.5q-3 -13 -21 -13q-28 0 -49.5 -1.5t-34.5 -1.5h-57q-4 0 -29 -1t-37 -1q-34 0 -34 28q0 14 10 34q2 5 3 9.5t3 7t10 7.5q31 19 73 63q29 30 63.5 104t34.5 155
q0 174 -146 174q-92 0 -172 -91t-80 -224q0 -70 23.5 -112.5t75.5 -76.5q15 -10 15 -23q0 -8 -6 -22t-6 -20q0 -4 -5 -8.5t-17.5 -7.5t-29.5 -3q-2 0 -51 -4t-80 -4q-26 0 -41.5 2.5t-19.5 5t-7 7.5t-4 6z" />
    <glyph glyph-name="Scaron" unicode="&#x160;" horiz-adv-x="544" 
d="M472 589v-589h-50v589h-52v-589h-50v353q-70 0 -112 38t-42 103t42 103t112 38h210v-46h-58z" />
    <glyph glyph-name="scaron" unicode="&#x161;" horiz-adv-x="658" 
d="M715 446q0 -31 -9 -68t-32.5 -81t-58.5 -79t-93.5 -58.5t-130.5 -23.5q-70 0 -140 40q-117 68 -117 191q0 51 19 107.5t53 107t90 83.5t122 33q71 0 112.5 -11t72.5 -45q5 -6 17.5 -16.5t17.5 -15.5q30 -25 43 -50q34 -54 34 -114zM623 468q0 73 -43.5 117.5t-126.5 44.5
q-66 0 -118.5 -41t-78.5 -100t-26 -121q0 -72 37.5 -118.5t111.5 -46.5q95 0 153 53q46 41 68.5 97.5t22.5 114.5zM376 343q-5 0 -9.5 -32.5t-4.5 -45.5q0 -6 -10 -10.5t-23 -4.5q-16 0 -27 7q-3 2 -10.5 5t-11 6.5t-3.5 8.5q0 1 3 24q6 44 24.5 108t39.5 108q-17 17 -17 28
q0 6 5 9q66 44 126 44q27 0 64 -13q11 -4 21 -14.5t13 -17.5q6 -18 6 -36q0 -46 -31 -83t-89 -50q15 -30 26.5 -46.5t17 -20.5t15.5 -7q13 -4 16 -9q7 -11 7 -25q0 -30 -42 -30q-43 0 -67 31q-15 18 -23.5 35t-11 24t-4.5 7zM468 539q-5 0 -10 -1q-10 -2 -14 -10
q-19 -39 -36 -86q19 6 42 29.5t23 54.5q0 13 -5 13z" />
    <glyph glyph-name="Ydieresis" unicode="&#x178;" horiz-adv-x="607" 
d="M261 71q-21 -25 -40 -38q-49 -35 -91 -35q-22 0 -83 43q-10 7 -20 26.5t-10 44.5q0 70 55 154.5t127 147.5q17 15 40 32t68 38.5t81 21.5q21 0 37.5 -7t17.5 -7q4 0 9 10q8 17 26 17q10 0 24.5 -6t16.5 -6q5 0 27 6t37 6q47 0 64 -21q13 -17 18 -27.5t5 -30.5
q0 -25 -14 -58t-23 -46q-119 -172 -243 -227q-11 -5 -11 -17q0 -23 18 -23q41 0 96 36q20 13 138 104q14 11 36.5 22t33.5 11q12 0 26 -11q10 -9 10 -23q0 -18 -10 -26q-11 -9 -40.5 -38t-44.5 -42q-59 -49 -137 -89q-40 -21 -96 -21q-37 0 -65 9q-69 22 -69 75q0 5 -2 5
q-3 0 -12 -10zM375 420q-189 -114 -241 -258q-19 -52 -19 -67q0 -17 8 -17q19 0 33 14q42 42 104 100q47 45 110 159l30 55q8 15 8 23q0 5 -4 5q-6 0 -29 -14zM543 433q-51 -51 -111 -165q-13 -25 -13 -31q0 -3 3 -3q7 0 44 39q76 82 97 131q7 16 7 27q0 12 -7 12
q-10 0 -20 -10z" />
    <glyph glyph-name="Zcaron" unicode="&#x17d;" horiz-adv-x="474" 
d="M341 267q1 0 11 1.5t23 3t22 1.5q29 0 43 -12q9 -7 9 -17q0 -26 -10 -37q-2 -2 -3.5 -7.5t-5.5 -8.5t-13 -3l-8 1q-8 1 -22 1q-1 0 -8.5 -1t-18.5 -2t-19 -1q-44 -3 -46 -4q-6 -1 -8 -7q-7 -16 -7 -18q0 -3 6 -3q1 0 36 3.5t51 3.5q27 0 34 -10q11 -15 11 -26t-9 -32
q-6 -14 -19 -14q-3 0 -15 1.5t-20 1.5q-5 0 -31 -3q-45 -5 -66 -5q-4 0 -8 -10q-6 -16 -14.5 -46.5t-8.5 -34.5q0 -3 0.5 -8t0.5 -6q0 -5 -7 -18t-9 -33q-1 -7 -14 -15t-28 -8q-10 0 -19 4.5t-11 4.5q-10 1 -25 9t-15 15q0 5 8 30.5t13 36.5q2 5 7.5 26.5t8.5 29.5
q4 12 4 13q0 3 -6 3q-1 0 -13 -0.5t-18 -0.5q-32 0 -42 5q-14 7 -23.5 22.5t-9.5 28.5q0 6 3.5 11t3.5 7q2 11 22 11q11 0 34 -3t51 -3q24 0 26 6q5 17 5 19q0 3 -6 3h-14q-53 0 -67 4q-24 11 -24 49q0 16 9 23l4 5q3 4 7.5 5.5t13.5 1.5q2 0 31.5 -4.5t48.5 -4.5
q8 0 11 0.5t5 2.5t2 6v122q0 33 1.5 73t1.5 49q0 6 -2.5 35.5t-2.5 45.5q0 29 6 37t29 11q17 2 28 2q24 0 37 -12q6 -5 11 -20.5t5 -22.5q0 -15 -4.5 -94.5t-4.5 -98.5q0 -16 2 -16q3 0 18 15q75 75 120 125q49 53 58 92q1 3 2 12.5t2.5 13.5t7.5 8t16 4q3 0 17.5 -2
t19.5 -2q10 0 15.5 -4t8.5 -4q24 0 24 -34q0 -20 -21.5 -58t-51.5 -68q-99 -99 -135 -137q-21 -23 -51 -48q-16 -14 -16 -16t5 -2z" />
    <glyph glyph-name="zcaron" unicode="&#x17e;" horiz-adv-x="636" 
d="M555 564q-1 0 -27 -1t-60.5 -2t-56.5 -1q-8 0 -8 -6q-1 -4 -11.5 -31t-22.5 -60t-21 -65q-4 -13 -19 -45.5t-17 -38.5q-10 -32 -35.5 -94t-25.5 -63q-78 -217 -78 -251q0 -7 -1.5 -18.5t-1.5 -16.5q0 -3 1 -9t1 -9q0 -15 -3 -22q-2 -6 -25 -19.5t-43 -13.5q-12 0 -21 7
q-3 2 -10 3t-12.5 5t-7.5 16q-3 17 -3 34q0 49 21 106l36 98q112 306 163 433q17 42 17 49q0 6 -12 6t-51 -8t-45 -8q-33 0 -48.5 21.5t-15.5 42.5q0 23 23 27l36 12q36 13 55 13q7 0 19 -3.5t18 -3.5q2 0 26.5 0.5t62.5 1t72 0.5q47 0 57 3q14 4 54 5t48 2q11 1 38.5 2
t38.5 2q43 4 67.5 16.5t33.5 12.5q17 0 36 -6t26 -13q26 -28 26 -37q0 -3 -1.5 -9t-1.5 -10q-1 -5 -12.5 -13.5t-22.5 -12.5q-17 -6 -55 -11t-51 -8q-26 -6 -37 -6q-4 0 -4 -3q0 -1 2 -5.5t2 -9.5q0 -3 -1 -10t-1 -10q0 -25 -51 -156q-2 -6 -13 -31t-13 -34q-2 -8 -17.5 -49
t-21.5 -63q-11 -36 -42 -125t-35 -111q-3 -17 -6 -38.5t-6 -30.5q-6 -22 -6 -34q0 -8 2 -12q4 -7 4 -12q0 -11 -21 -22q-30 -15 -63 -15q-21 0 -27 10q-2 3 -6.5 6.5t-7 8.5t-2.5 14q0 50 32 162q7 25 23.5 71t21.5 64q7 26 35 101.5t36 99.5q24 73 48.5 142.5t29.5 82.5
q0 6 -5 6z" />
    <glyph glyph-name="Euro" unicode="&#x20ac;" horiz-adv-x="406" 
d="M300 48q-9 -8 -32 -16t-28 -8q-4 0 -4 -6q0 -1 0.5 -9t1 -20.5t0.5 -24.5q0 -37 -15 -61q-25 -42 -67 -75q-23 -19 -77 -19q-65 0 -98.5 39.5t-33.5 85.5q0 34 17 43q2 1 11 7.5t18.5 11t19.5 4.5q13 0 25 -8q9 -7 13.5 -34t12 -49.5t26.5 -22.5q14 0 27 17q19 25 19 60
q0 37 -32 131q-28 81 -28 142q0 65 20 98q46 78 112 98q17 6 17 11l-1 7q-2 8 -4 20.5t-2 26.5q0 75 67 135q42 38 117 38q36 0 59 -20q13 -11 23.5 -37.5t10.5 -47.5q0 -25 -17 -31q-5 -2 -15.5 -7t-18.5 -7.5t-15 -2.5q-9 0 -17 4q-4 2 -10 17q-4 10 -5.5 21.5t-1.5 12.5
q-4 16 -7 20t-9 4q-24 0 -39 -26t-15 -50q0 -46 42 -141q35 -78 35 -147q0 -86 -53 -139q-11 -11 -25.5 -23.5t-23.5 -21.5zM231 118q24 9 37 25q25 31 25 72q0 37 -33 126q-5 11 -8 11t-13 -6q-31 -18 -44 -46q-12 -25 -12 -48q0 -16 3.5 -36t7.5 -34t10.5 -33.5t7.5 -24.5
q3 -10 6 -10q4 0 13 4z" />
  </font>
</defs>
</svg>
