<?xml version="1.0" standalone="no"?>
<!DOCTYPE svg PUBLIC "-//W3C//DTD SVG 1.1//EN" "http://www.w3.org/Graphics/SVG/1.1/DTD/svg11.dtd" >
<svg xmlns="http://www.w3.org/2000/svg" xmlns:xlink="http://www.w3.org/1999/xlink" version="1.1">
<metadata>
Created by FontForge 20150715 at Fri Oct 28 12:23:00 2016
 By Timothy Anido
(c) H.A. Simon, 1996. Published by FontShop International FontFont release 18
</metadata>
<defs>
<font id="Market-CondensedMedium" horiz-adv-x="416" >
  <font-face 
    font-family="Market-CondensedMedium"
    font-weight="500"
    font-stretch="condensed"
    units-per-em="1000"
    panose-1="2 0 6 6 0 0 0 0 0 0"
    ascent="800"
    descent="-200"
    x-height="448"
    cap-height="638"
    bbox="-160 -438 867 918"
    underline-thickness="64"
    underline-position="-224"
    unicode-range="U+0001-20AC"
  />
<missing-glyph horiz-adv-x="500" 
d="M50 0v533h400v-533h-400zM100 50h300v433h-300v-433z" />
    <glyph glyph-name=".notdef" horiz-adv-x="500" 
d="M50 0v533h400v-533h-400zM100 50h300v433h-300v-433z" />
    <glyph glyph-name=".null" horiz-adv-x="0" 
 />
    <glyph glyph-name="nonmarkingreturn" horiz-adv-x="333" 
 />
    <glyph glyph-name="uni0001" horiz-adv-x="466" 
d="M216 254q-32 -84 -48 -158q-9 -39 -9 -46q0 -5 4 -7q5 -3 16 -3q35 0 72 42q106 120 188 325q23 57 23 84q0 37 -5 48q-8 17 -21 26.5t-21 9.5t-20.5 -4t-31 -12.5t-21.5 -9.5q-5 -2 -5 -10q0 -10 -6 -16q-8 -8 -13 -20q-4 -9 -22 -52t-28 -66q-13 -30 -13 -33q0 -2 5 -2
q4 0 21 4q20 5 35 5q7 0 10 -7q3 -9 3 -27q0 -7 -3 -15q-3 -7 -5 -11t-4.5 -8.5t-5.5 -9.5q-4 -8 -75 -16q-17 -2 -20 -11zM120 220q8 23 8 25q0 4 -3 4l-11 -1q-12 -2 -22 -2q-14 0 -14 10q0 36 21 60q9 10 17 13t38 8q7 1 12 15q4 10 10.5 28.5t10.5 27.5q13 34 13 36
t-2 2t-6 -3q-8 -5 -21 -5q-23 0 -23 23q0 8 2 23q2 14 10 26t16.5 20t35.5 30q91 75 181 75q61 0 84 -23q3 -3 18 -16t24 -24t16 -26q13 -26 13 -58q0 -54 -30 -118q-3 -7 -7 -18.5t-9 -23.5q-53 -117 -102 -196t-110 -124q-32 -24 -50 -30q-15 -5 -35 -5q-13 0 -25.5 2
t-19.5 4.5t-8 2.5l-2 -1q-1 -1 -6.5 -2.5t-16.5 -1.5q-37 0 -53 38q-32 17 -47 32.5t-15 38.5q0 17 17 17q15 0 25 -1.5t13 -1.5q7 0 10 -0.5t4 -1t2 -0.5q2 0 9 26q22 80 28 96z" />
    <glyph glyph-name="uni0002" horiz-adv-x="328" 
d="M236 383q-13 0 -30 -29q-41 -68 -58.5 -108.5t-24.5 -88.5q-5 -33 -5 -58q0 -21 7.5 -34t15.5 -13t28 21q43 47 69 111.5t30 106.5q-10 3 -11 15q-6 53 -13 68q-4 9 -8 9zM314 632q21 14 34 25q15 12 29 12t23 -9t9 -20q0 -8 -8.5 -19t-8.5 -13q-1 -6 -9 -12.5t-40 -25.5
q-13 -8 -13 -10t2 -9q23 -83 23 -156q0 -35 -2 -59q-5 -68 -34.5 -152t-79.5 -142q-26 -30 -35 -39q-21 -21 -50 -21q-21 0 -30 2t-15.5 7.5t-10.5 7.5q-21 11 -32 21.5t-16 28.5q-8 28 -8 62q0 39 8 77q19 90 64 158l35 52q31 47 76 47q30 0 47 -17q4 -4 5 -4q2 0 2 4
q0 33 -13 79q-4 14 -5 14t-16 -9q-12 -7 -28 -20q-21 -17 -39 -17q-9 0 -12 4q-8 12 -8 24q0 10 1 14.5t6.5 11.5t6.5 9q8 13 53 40q10 6 10 7q0 7 -28 48q-19 27 -33 44q-11 13 -11 22q0 18 3.5 23.5t12.5 7.5q2 0 5 4t9 7t15 3q11 0 15.5 -2t19.5 -16q20 -17 20 -23
q0 -1 -0.5 -3t-0.5 -3q0 -3 11 -21q10 -16 24 -42q4 -8 6 -8t11 6z" />
    <glyph glyph-name="uni0003" horiz-adv-x="384" 
d="M153 317q27 64 79.5 181t64.5 144q4 9 6.5 12.5t9 5.5t20.5 2q11 0 19 -6.5t11 -7.5q8 -2 15.5 -8.5t7.5 -12.5q0 -11 -8 -29t-8 -21q0 -5 -5 -10q-25 -25 -46 -84q-3 -7 -11 -24t-14 -31q-3 -8 -9.5 -22.5t-9.5 -21.5q-4 -10 -4 -13q0 -2 2 -2q3 0 11 5q29 17 48 26
q9 4 21 4q21 0 21 -24q0 -17 -7 -31q-8 -15 -9 -22q-1 -5 -8 -8q-15 -6 -16 -7q-7 -6 -27 -15.5t-44 -19.5t-26 -11q-12 -6 -15 -15q-36 -94 -52 -139q-14 -39 -14 -52q0 -11 7 -11t23 5q58 18 165 69q4 2 22 2q17 0 28 -7q10 -7 19 -16q7 -7 7 -15q0 -1 2 -6t2 -12
q0 -18 -23 -22q-5 -1 -16 -1q-8 0 -14 -2q-24 -8 -119 -47q-74 -30 -129 -30q-17 0 -25.5 4.5t-20.5 17.5q-11 12 -22 34q-4 8 -4 14q0 9 18 59q2 6 4 19t9 33l7.5 22.5t7.5 20.5q3 8 3 10t-2 2l-4 -1h-5q-11 0 -15 7q-2 3 -2 20q0 16 5 26q2 4 4 12q2 7 5 10q7 6 38 20
q17 7 22 20z" />
    <glyph glyph-name="uni0004" horiz-adv-x="211" 
d="M34 184q-9 0 -13 5q-4 6 -4 13q0 26 13 46q6 10 17 15q24 11 35 22t23 38q27 60 69 146q11 22 39 79t43 88q16 34 27 50q16 24 31.5 31t41.5 7q14 0 19 -2.5t9 -11.5q5 -10 5 -26t-21 -45q-2 -3 -7 -12t-14.5 -25.5t-19.5 -32.5q-67 -110 -113 -193q-6 -12 -6 -14t2 -2
t12 6q22 14 54 24q12 4 33 4q18 0 18 -11q0 -25 -4.5 -34t-22.5 -23q-8 -6 -38 -18t-32 -13q-4 -3 -28 -15.5t-41 -27.5q-8 -7 -18 -32l-27 -72q-12 -35 -12 -71q0 -27 10 -27q4 0 13 8q7 7 52 59q13 16 20.5 23.5t20.5 15.5t26 8t23 -6q11 -7 11 -18q0 -5 -2.5 -9t-8 -9.5
l-8.5 -8.5q-12 -15 -34 -46.5t-30 -39.5q-41 -45 -88 -45q-19 0 -45 18q-20 14 -30 34q-7 14 -7 44q0 41 20 96q3 8 3 10t-2 2q-1 0 -6.5 -1t-7.5 -1z" />
    <glyph glyph-name="uni0005" horiz-adv-x="352" 
d="M332 574q-5 9 -10 9t-12 -17q-11 -28 -11 -82q0 -47 4 -75q2 -13 12 -76.5t17 -115.5t9 -87q2 -32 2 -58q0 -38 -18 -63t-38 -35q-6 -3 -40 -3q-116 0 -190 132l-7 11q-8 11 -14 21t-11.5 31.5t-5.5 44.5q0 20 2 26t11 18q3 4 15 4q32 0 48 -14q25 -23 25 -36
q0 -8 -4 -17.5t-4 -21.5q0 -8 3 -16q11 -30 37.5 -61t55.5 -47q16 -9 24 -9q6 0 13.5 11t8.5 25q2 26 2 35q0 42 -3 76q-4 45 -18.5 135.5t-18.5 143.5q-3 37 -3 69q0 45 18 88q15 33 49 33q44 0 73 -12t52 -45q5 -7 8 -14.5t5.5 -18t3.5 -16t3 -18.5t2 -16q3 -23 3 -34
q0 -12 -26 -12q-34 0 -54 39q-3 6 -5.5 29t-12.5 39zM399 765q3 0 7 3q7 4 12.5 8.5t10.5 7.5l52 34q9 6 20 6q9 0 12 -3t3 -15q0 -2 0.5 -7t0.5 -8q0 -5 -4 -14q-3 -7 -18 -18l-86 -65q-8 -6 -12 -7.5t-5 -2.5q-3 -2 -15 -2q-17 0 -22 10l-35 70q-14 24 -14 41q0 27 17 45
q7 7 27 7q9 0 10.5 -1t3.5 -6q3 -12 29 -73q4 -10 6 -10z" />
    <glyph glyph-name="uni0006" horiz-adv-x="245" 
d="M118 45q2 0 2 5q0 11 -2 27q-11 99 -11 232q0 19 10.5 57.5t27.5 68.5q37 65 85 65q59 0 82 -37q11 -17 11 -57q0 -48 -29 -91q-6 -9 -8.5 -10.5t-11.5 -1.5q-21 0 -35 13q-10 10 -10 30q0 4 4 12q16 32 16 48q0 12 -3.5 22t-6.5 10t-12 -14q-31 -45 -38 -84
q-3 -16 -3 -31q0 -59 3 -111q8 -132 8 -155q0 -26 -8 -37q-13 -16 -27 -27q-12 -9 -33 -9t-29 4q-64 32 -107 133q-4 9 -4 15q0 13 10.5 25.5t29.5 12.5q18 0 25 -2.5t12 -12.5q6 -10 19 -44t26 -51q4 -5 7 -5zM318 623q3 0 7 3q7 4 12.5 8.5t10.5 7.5l52 34q9 6 20 6
q9 0 12 -3t3 -15q0 -2 0.5 -7t0.5 -8q0 -5 -4 -14q-3 -7 -18 -18l-86 -65q-8 -6 -12 -7.5t-5 -2.5q-3 -2 -15 -2q-17 0 -22 10l-35 70q-14 24 -14 41q0 27 17 45q7 7 27 7q9 0 11 -1t3 -6q3 -12 29 -73q4 -10 6 -10z" />
    <glyph glyph-name="uni0007" horiz-adv-x="410" 
d="M188 239q8 0 16 6q60 45 97 87q44 51 99 165q49 100 57 110t19 10q39 0 54 -22q6 -9 6 -30q0 -3 -13 -24q-176 -283 -276 -851q-1 -7 -3 -14l-3 -10.5t-1 -4.5q0 -5 -0.5 -6.5t-3.5 -2.5t-9 -1q-4 0 -8 0.5t-6 1t-5.5 1.5t-7.5 2q-15 2 -25.5 10t-11.5 17t-1 23
q0 28 20 101q3 11 19 83q29 130 88 322q-42 -44 -100 -44q-14 0 -29 11q-16 11 -31 29q-27 32 -27 54q0 40 10 110q1 4 3.5 15t3.5 22q1 7 4.5 20t5.5 24q23 115 53 214q2 7 4 8.5t10 1.5q17 0 38 -5l20 -5q2 0 5 -7.5t3 -14.5q0 -14 -3 -24t-9 -24t-10 -32
q-46 -191 -56 -287q-3 -27 -3 -31q0 -8 7 -8zM341 720q6 0 20 7l74 34q33 16 59 33q9 6 24 6q14 0 23 -9q7 -7 7 -16q0 -27 -7 -38q-9 -12 -59 -31l-92 -35q-14 -5 -28 -5q-13 0 -17.5 3.5t-14.5 18.5q-5 8 -5 13q0 2 1 6t5 8.5t10 4.5z" />
    <glyph glyph-name="uni0008" horiz-adv-x="357" 
d="M267 -7q22 0 22 -11q0 -14 -8 -26q-77 -116 -115 -281q-14 -60 -16 -65q-14 -36 -41 -41q-1 0 -12 -3.5t-18 -3.5q-35 0 -35 32q0 36 21 87q41 98 80 171q4 25 62 200q13 40 13 41q0 2 -2 2q-1 0 -4 -3q-9 -8 -41 -36q-22 -18 -29 -22t-17 -4q-55 0 -80 42q-5 8 -5 13
q0 35 14 99q11 50 47.5 146t46.5 128q9 30 40 30q4 0 12 -3t13 -3q9 0 14 -4t6.5 -7.5t1.5 -6.5q0 -23 -9 -42q-12 -24 -16 -28q-6 -6 -9 -13q-15 -34 -26 -66t-23.5 -71.5t-21.5 -66.5q-14 -40 -14 -67q0 -8 3 -8q2 0 13.5 8t28 24.5t28.5 33.5q3 4 14 17t18 23
q5 7 22.5 28.5t29 37.5t29.5 51.5t35 79.5q5 16 14 25q5 5 17 5q8 0 14 -3.5t14 -3.5q20 0 26 -13q3 -6 3 -19q0 -22 -22 -55q-6 -9 -10.5 -18.5t-6.5 -11.5q-30 -48 -57 -128q-3 -10 -26.5 -73.5t-27.5 -76.5q-3 -10 -8 -25q-4 -12 -4 -13q0 -2 2 -2zM269 556q6 0 20 7
l74 34q33 16 59 33q9 6 24 6q14 0 23 -9q7 -7 7 -16q0 -27 -7 -38q-9 -12 -59 -31l-92 -35q-14 -5 -28 -5q-13 0 -17.5 3.5t-14.5 18.5q-5 8 -5 13q0 2 1 6t5 8.5t10 4.5z" />
    <glyph glyph-name="uni000B" horiz-adv-x="408" 
d="M239 209q70 56 140 168q28 45 45 95q9 27 9 40q0 8 -9 8q-8 0 -16 -2q-75 -19 -138 -72q-5 -14 -35 -90t-42 -117q21 -24 25 -28q7 -7 11 -7t10 5zM329 566q18 9 43 16q35 10 67 10q45 0 59 -19q16 -22 16 -69q0 -53 -53 -150q-33 -59 -68 -103.5t-95 -99.5
q-21 -19 -89 -19q-30 0 -43 9q-3 2 -4 2q-2 0 -9 -22q-33 -108 -33 -126q0 -9 -9 -15q-12 -8 -27 -8q-21 0 -24 5q-4 7 -17 14q-11 7 -11 18q0 2 5 21t16 55t24 71q20 55 20 64q0 4 -4 8q-11 11 -11 20q0 6 0.5 8.5t3 4t3.5 2.5q22 27 32 27q3 0 5 5q22 60 26 73q2 8 2 10
t-3 3q-13 8 -18 26q-1 4 -2.5 6t-1.5 6q0 15 23 35q12 10 34 25q11 7 15 16q11 25 34 83t36 87q4 10 19 14q7 2 16 2q7 0 13.5 -4t17.5 -6q18 -4 18 -19q0 -12 -7 -26.5t-8 -18.5q-1 -11 -8 -21q-12 -19 -12 -21t2 -2q1 0 7 3z" />
    <glyph glyph-name="uni000C" horiz-adv-x="373" 
d="M311 360q-70 -65 -119 -155q-8 -15 -8 -35q0 -36 10 -72q7 -23 12 -23q3 0 11 12q25 37 56 105q27 61 47 130q12 40 12 52q0 2 -2 2t-19 -16zM226 373q51 59 87 82q11 7 22 7q33 0 73 -35q10 -8 10 -27q0 -36 -13 -82q-1 -2 -2.5 -12.5t-5.5 -21.5q-78 -202 -150 -274
q-8 -8 -32 -8q-17 0 -35 10.5t-24 18.5q-19 28 -28 56q-2 6 -3 6q-2 0 -9 -14q-52 -103 -111 -291q-7 -23 -9 -43q-1 -12 -7 -15q-3 -2 -13 -2q-12 0 -20 2l-7 2q-24 3 -27 9q-1 2 -4 5t-4.5 7t-1.5 10t9 33q23 70 121.5 326.5t167.5 477.5q13 42 13 60q0 16 20 18
q2 0 12.5 3.5t20.5 3.5q35 0 35 -15q0 -12 -8 -40q-21 -75 -83 -246q-6 -17 -6 -19t2 -2q1 0 10 10z" />
    <glyph glyph-name="uni000E" horiz-adv-x="456" 
d="M430 20q-2 0 -2.5 -1t-3.5 -4t-9 -6q-118 -58 -219 -58q-96 0 -165 55q-5 4 -16.5 30.5t-11.5 39.5q0 16 4 26q17 43 100 118q21 19 21 23t-7 5q-25 4 -32 16q-6 11 -6 20q0 6 2.5 15.5t2.5 10.5q0 10 7 17q6 6 22 6q14 0 25 -5q31 -13 41 -13q7 0 26 4t26 9
q172 124 232 220q6 10 6 12q0 16 -31 22.5t-57 6.5q-76 0 -104 -57q-3 -7 -27 -7q-18 0 -30 7q-21 12 -21 60q0 10 4 13q69 52 171 52q93 0 151 -45q9 -7 24 -26.5t15 -30.5q0 -16 -5 -33q-5 -16 -39 -57q-27 -34 -86 -93q-6 -6 -6 -9t5 -3q61 0 79 -35q2 -4 2 -17
q0 -12 -7 -19q-2 -2 -14 -2q-7 0 -15.5 0.5t-26.5 0.5q-46 0 -84 -12q-61 -18 -89 -23q-19 -19 -61 -52.5t-71.5 -64t-45.5 -66.5q-6 -13 -6 -18q0 -4 14 -14t24 -10t22 -4t20 -4q36 0 97 23.5t90 38.5q16 8 31 8q32 0 36 -11q2 -6 8 -16.5t10 -19t4 -15.5q0 -10 -10 -10
q-3 0 -7.5 1t-6.5 1zM503 781q3 0 7 3q7 4 12.5 8.5t10.5 7.5l52 34q9 6 20 6q9 0 12 -3t3 -15q0 -2 0.5 -7t0.5 -8q0 -5 -4 -14q-3 -7 -18 -18l-86 -65q-8 -6 -12 -7.5t-5 -2.5q-3 -2 -15 -2q-17 0 -22 10l-35 70q-14 24 -14 41q0 27 17 45q7 7 27 7q9 0 10.5 -1t3.5 -6
q3 -12 29 -73q4 -10 6 -10z" />
    <glyph glyph-name="uni000F" horiz-adv-x="315" 
d="M278 403q-1 0 -5.5 -1.5t-11.5 -3t-14 -2.5q-41 -6 -74 -45q-6 -7 -19 -7t-22 12.5t-9 31.5q0 34 18 39q5 2 64 22q33 11 73 11q29 0 50.5 -7.5t26.5 -16.5q0 -1 8 -10t10 -17t2 -20q0 -13 -7 -25q-6 -11 -52 -52q-8 -7 -8 -11q0 -3 3 -3q47 0 67 -28q5 -7 5 -13
q0 -2 -1 -5t-5.5 -7t-10.5 -4q-62 0 -139 -29q-26 -10 -35 -20q-14 -15 -45.5 -55.5t-38.5 -47.5q-12 -12 -12 -27q0 -7 8 -13q10 -7 17 -7q9 0 22.5 5t27.5 5q15 0 43 19q30 20 56 20q30 0 43 -19q4 -6 4 -16q0 -8 -9 -12q-69 -34 -83 -40q-53 -21 -99 -21q-56 0 -89 27
q-21 17 -21 54q0 21 5 33q8 19 50 72q16 21 16 24q0 4 -10 8q-19 8 -24 21q-8 19 -8 29q0 4 1.5 8t9 9.5t19.5 5.5q15 0 33.5 -7t26.5 -7q22 0 55 35q6 7 14.5 17t13.5 15t12.5 12t16.5 12q9 6 23 22.5t14 25.5q0 4 -6 4zM351 587q3 0 7 3q7 4 12.5 8.5t10.5 7.5l52 34
q9 6 20 6q9 0 12 -3t3 -15q0 -2 0.5 -7t0.5 -8q0 -5 -4 -14q-3 -7 -18 -18l-86 -65q-8 -6 -12 -7.5t-5 -2.5q-3 -2 -15 -2q-17 0 -22 10l-35 70q-14 25 -14 41q0 27 17 45q7 7 27 7q9 0 10.5 -1t3.5 -6q3 -12 29 -73q4 -10 6 -10z" />
    <glyph glyph-name="uni0015" horiz-adv-x="768" 
d="M274 437q-2 0 -11 -12q-23 -32 -42.5 -56.5t-30 -36.5t-17.5 -19.5t-10 -11t-4 -5.5q-3 -8 -25 -8q-17 0 -23 7q-2 2 -6 5.5t-6 6.5q-7 10 -7 16q0 8 11 20q22 25 37 35q12 9 27 28q74 93 121 159q25 35 48 79q3 6 21 6q19 0 34 -9t15 -22q0 -3 -10 -30q-19 -51 -34 -103
t-34.5 -127.5t-28.5 -107.5q-6 -21 -8 -43q-4 -34 -22 -34q-1 0 -7 -1t-13 -1q-39 0 -39 24q0 4 1 10t3 12.5t2 8.5q2 11 8 26t7 20q13 45 37 131q8 29 8 31t-2 2zM676 402q-12 0 -32 -22q-9 -11 -24 -33q-2 -3 -8.5 -10.5t-8.5 -12.5q-6 -15 -17 -16q-6 -1 -11 -2t-8 -1
q-20 0 -28 11q-9 13 -9 28q0 10 18 40q15 25 55 52q20 14 35 18t44 4q24 0 45.5 -23t21.5 -40q0 -86 -88 -193q-19 -23 -54 -62.5t-54 -62.5t-19 -28t31 -5t44 7.5t22 30.5q8 21 11 24q11 11 32 11q19 0 29 -11q7 -7 7 -19q0 -13 -10.5 -42.5t-15.5 -36.5q-10 -14 -33.5 -19
t-78.5 -5q-92 0 -109 18q-19 20 -19 48q0 9 22 37q15 20 65 77q93 107 128 172q21 40 21 61q0 5 -4 5zM671 662q5 -6 5 -28q0 -24 -8 -29q-6 -4 -14 -13q-8 -11 -18 -18.5t-14 -13.5q-64 -96 -163.5 -273.5t-124.5 -219.5q-27 -45 -45 -70q-15 -20 -19.5 -23.5t-15.5 -3.5
q-24 0 -30 8q-11 13 -11 22q0 38 11 42q10 4 45 63l275 469q35 59 63 87q14 14 34 14q18 0 30 -13z" />
    <glyph glyph-name="uni0016" horiz-adv-x="768" 
d="M274 437q-2 0 -11 -12q-23 -32 -42.5 -56.5t-30 -36.5t-17.5 -19.5t-10 -11t-4 -5.5q-3 -8 -25 -8q-17 0 -23 7q-2 2 -6 5.5t-6 6.5q-7 10 -7 16q0 8 11 20q22 25 37 35q12 9 27 28q74 93 121 159q25 35 48 79q3 6 21 6q19 0 34 -9t15 -22q0 -3 -10 -30q-19 -51 -34 -103
t-34.5 -127.5t-28.5 -107.5q-6 -21 -8 -43q-4 -34 -22 -34q-1 0 -7 -1t-13 -1q-39 0 -39 24q0 4 1 10t3 12.5t2 8.5q2 11 8 26t7 20q13 45 37 131q8 29 8 31t-2 2zM621 282q-1 0 -11 -13q-1 -1 -15 -20.5t-32.5 -44.5t-29.5 -39q-3 -4 -3 -6q0 -4 8 -6q9 -2 22 -2q12 0 22 2
q6 1 7 8q8 41 25 93l8 26q0 2 -1 2zM569 94h-10q-46 0 -75 15q-11 6 -20 27t-9 30q0 14 8 24q7 9 29.5 38.5t35.5 45.5t34 42t41.5 49t41.5 44q7 7 13 16t8 11q5 5 20 5q14 0 22 -4q20 -10 20 -26q0 -11 -6 -28t-6 -21q0 -8 -8 -36q-1 -4 -6.5 -22.5t-14 -44.5t-13.5 -45
q-10 -34 -10 -42q0 -2 3 -2q1 0 5 0.5t11 1t14 0.5q27 0 34 -11q9 -13 9 -30q0 -4 -1 -6.5t-6.5 -5t-16.5 -3.5q-18 -2 -25 -3q-23 -4 -40 -9q-6 -15 -10 -33t-7.5 -42t-5.5 -34q-1 -7 -2 -9.5t-3.5 -4.5t-7.5 -2q-23 0 -34 7q-3 2 -8.5 6.5t-8.5 6.5q-6 4 -6 17q0 8 6 39
l4 16q4 12 4 20q0 3 -3 3zM680 662q5 -6 5 -28q0 -24 -8 -29q-6 -4 -14 -13q-8 -11 -18 -18.5t-14 -13.5q-64 -96 -163.5 -273.5t-124.5 -219.5q-27 -45 -45 -70q-15 -20 -19.5 -23.5t-15.5 -3.5q-24 0 -30 8q-11 13 -11 22q0 38 11 42q10 4 45 63l275 469q35 59 63 87
q14 14 34 14q18 0 30 -13z" />
    <glyph glyph-name="uni0017" horiz-adv-x="299" 
d="M274 437q-2 0 -11 -12q-23 -32 -42.5 -56.5t-30 -36.5t-17.5 -19.5t-10 -11t-4 -5.5q-3 -8 -25 -8q-17 0 -23 7q-2 2 -6 5.5t-6 6.5q-7 10 -7 16q0 8 11 20q22 25 37 35q12 9 27 28q74 93 121 159q25 35 48 79q3 6 21 6q19 0 34 -9t15 -22q0 -3 -10 -30q-19 -51 -34 -103
t-34.5 -127.5t-28.5 -107.5q-6 -21 -8 -43q-4 -34 -22 -34q-1 0 -7 -1t-13 -1q-39 0 -39 24q0 4 1 10t3 12.5t2 8.5q2 11 8 26t7 20q13 45 37 131q8 29 8 31t-2 2z" />
    <glyph glyph-name="uni0018" horiz-adv-x="768" 
d="M621 282q-1 0 -11 -13q-1 -1 -15 -20.5t-32.5 -44.5t-29.5 -39q-3 -4 -3 -6q0 -4 8 -6q9 -2 22 -2q12 0 22 2q6 1 7 8q8 41 25 93l8 26q0 2 -1 2zM569 94h-10q-46 0 -75 15q-11 6 -20 27t-9 30q0 14 8 24q7 9 29.5 38.5t35.5 45.5t34 42t41.5 49t41.5 44q7 7 13 16t8 11
q5 5 20 5q14 0 22 -4q20 -10 20 -26q0 -11 -6 -28t-6 -21q0 -8 -8 -36q-1 -4 -6.5 -22.5t-14 -44.5t-13.5 -45q-10 -34 -10 -42q0 -2 3 -2q1 0 5 0.5t11 1t14 0.5q27 0 34 -11q9 -13 9 -30q0 -4 -1 -6.5t-6.5 -5t-16.5 -3.5q-18 -2 -25 -3q-23 -4 -40 -9q-6 -15 -10 -33
t-7.5 -42t-5.5 -34q-1 -7 -2 -9.5t-3.5 -4.5t-7.5 -2q-23 0 -34 7q-3 2 -8.5 6.5t-8.5 6.5q-6 4 -6 17q0 8 6 39l4 16q4 12 4 20q0 3 -3 3zM680 662q5 -6 5 -28q0 -24 -8 -29q-6 -4 -14 -13q-8 -11 -18 -18.5t-14 -13.5q-64 -96 -163.5 -273.5t-124.5 -219.5
q-27 -45 -45 -70q-15 -20 -19.5 -23.5t-15.5 -3.5q-24 0 -30 8q-11 13 -11 22q0 38 11 42q10 4 45 63l275 469q35 59 63 87q14 14 34 14q18 0 30 -13zM275 396q-2 0 -6 -2q-2 -1 -8 -3t-9 -4q-2 -1 -6 -4t-8.5 -6t-9.5 -5q-20 -10 -36 -10q-15 0 -21 3q-13 7 -13 27
q0 10 3 13q9 9 25 20q6 4 10.5 9t5.5 6q57 44 96 111q9 15 9 21q0 4 -4 4q-7 0 -34 -24q-12 -10 -12 -17q0 -6 -3 -10t-8 -7.5t-6 -5.5q-4 -6 -26 -6q-19 0 -25 8q-11 18 -11 26q0 13 6 23t19 22t14 14q3 4 12.5 7t12.5 5q47 33 80 33q23 0 32 -8q6 -5 11 -7q24 -12 24 -35
q0 -13 -7 -30q0 -1 -2 -6t-6 -13q-25 -47 -67 -95q48 -13 48 -72q0 -44 -27 -103q-23 -50 -49 -78.5t-70 -28.5q-54 0 -108 84q-6 10 -6 22t4.5 16t20.5 4q3 0 9.5 1t13.5 1q16 0 22 -9q2 -3 7.5 -9.5t7.5 -11.5t2 -10q-1 -6 9 -16.5t15 -10.5q4 0 12 6.5t21.5 25.5t24.5 47
q20 48 20 64q0 11 -5 20q-2 4 -4 4z" />
    <glyph glyph-name="uni0019" horiz-adv-x="299" 
d="M275 396q-2 0 -6 -2q-2 -1 -8 -3t-9 -4q-2 -1 -6 -4t-8.5 -6t-9.5 -5q-20 -10 -36 -10q-15 0 -21 3q-13 7 -13 27q0 10 3 13q9 9 25 20q6 4 10.5 9t5.5 6q57 44 96 111q9 15 9 21q0 4 -4 4q-7 0 -34 -24q-12 -10 -12 -17q0 -6 -3 -10t-8 -7.5t-6 -5.5q-4 -6 -26 -6
q-19 0 -25 8q-11 18 -11 26q0 13 6 23t19 22t14 14q3 4 12.5 7t12.5 5q47 33 80 33q23 0 32 -8q6 -5 11 -7q24 -12 24 -35q0 -13 -7 -30q0 -1 -2 -6t-6 -13q-25 -47 -67 -95q48 -13 48 -72q0 -44 -27 -103q-23 -50 -49 -78.5t-70 -28.5q-54 0 -108 84q-6 10 -6 22t4.5 16
t20.5 4q3 0 9.5 1t13.5 1q16 0 22 -9q2 -3 7.5 -9.5t7.5 -11.5t2 -10q-1 -6 9 -16.5t15 -10.5q4 0 12 6.5t21.5 25.5t24.5 47q20 48 20 64q0 11 -5 20q-2 4 -4 4z" />
    <glyph glyph-name="uni001A" horiz-adv-x="299" 
d="M316 595q-12 0 -32 -22q-9 -11 -24 -33q-2 -3 -8.5 -10.5t-8.5 -12.5q-6 -15 -17 -16q-6 -1 -11 -2t-8 -1q-20 0 -28 11q-9 13 -9 28q0 10 18 40q15 25 55 52q20 14 35 18t44 4q24 0 45.5 -23t21.5 -40q0 -86 -88 -193q-19 -23 -54 -62.5t-54 -62.5t-19 -28t31 -5t44 7.5
t22 30.5q8 21 11 24q11 11 32 11q19 0 29 -11q7 -7 7 -19q0 -13 -10.5 -42.5t-15.5 -36.5q-10 -14 -33.5 -19t-78.5 -5q-92 0 -109 18q-19 20 -19 48q0 9 22 37q15 20 65 77q93 107 128 172q21 40 21 61q0 5 -4 5z" />
    <glyph glyph-name="uni001B" horiz-adv-x="242" 
d="M164 387q0 6 32 98l51 149q19 55 37 88q5 9 26 9q9 0 20 -5.5t14 -6.5q7 -2 14 -8.5t7 -12.5q0 -10 -4 -23t-4 -17q0 -7 -11 -20q-6 -8 -19.5 -35t-21.5 -49q-58 -165 -58 -167q-4 -18 -15 -41q-4 -6 -18 -6q-24 0 -28 12q-6 16 -15 25q-7 7 -7 10zM169 106
q-16 -23 -25 -49l-91 -243q-4 -9 -7 -11.5t-12 -2.5q-13 0 -17.5 2.5t-6 8t-6.5 8.5q-16 11 -16 28q0 11 10 36q6 16 9.5 31t4.5 19l71 212q6 19 15 37t30 18q16 0 25.5 -4t12.5 -4q20 -3 20 -26q0 -34 -17 -60z" />
    <glyph glyph-name="uni001C" horiz-adv-x="480" 
d="M464 302q2 -3 2 -8q0 -27 -10 -48q-4 -8 -18 -8h-18q-28 0 -95.5 -3.5t-97.5 -3.5q-91 0 -109 9q-14 7 -14 54q0 15 8 18q12 5 28 5q3 0 49 -4.5t77 -4.5q22 0 55.5 2t53.5 2q10 0 23.5 3t28.5 3q27 0 37 -16z" />
    <glyph glyph-name="uni001D" horiz-adv-x="480" 
d="M223 165q-5 -5 -21 -21.5t-25 -26.5t-21 -27t-20 -33q-6 -13 -11 -16.5t-17 -3.5q-2 0 -7 1t-9 1q-11 0 -15 4q-3 3 -6 9.5t-4 7.5q-11 11 -11 20q0 24 39 65q34 36 109 111q12 12 12 17t-3 15q-4 12 -5.5 21.5t-2 17.5t-1.5 11q-5 28 -10 51.5t-7 32.5t-3 17t-1 15
q0 25 23 25h16q22 0 30 -3q3 -1 5 -5t5 -5q8 -3 8 -13q0 -31 12 -107q2 -14 4 -14t11 9q16 16 41 38.5t44 41.5t35 39q5 7 27 7q9 0 18 -2t13 -2q15 0 20 -11q6 -12 6 -19t-5 -13q-18 -22 -68 -61q-27 -21 -109 -103q-15 -15 -15 -19q0 -5 4 -20q23 -90 40 -123
q18 -36 18 -43q0 -8 -19 -23q-5 -4 -15 -4q-15 0 -22 1q-3 0 -7 4t-7 4q-13 0 -18 13q-22 50 -39 121q-2 9 -4 9t-12 -11z" />
    <glyph glyph-name="space" unicode=" " horiz-adv-x="205" 
 />
    <glyph glyph-name="exclam" unicode="!" horiz-adv-x="264" 
d="M305 640q5 -2 9 -8t8 -7q19 -8 19 -25q0 -12 -5.5 -28t-14 -36t-11.5 -29q-7 -22 -42.5 -138t-60.5 -175q-6 -13 -19 -13q-23 0 -24 13q-1 14 -10 24.5t-9 16.5q0 9 3 18q8 27 13 45q6 25 33 119t38 151q7 35 13 52q12 29 34 29q8 0 11.5 -1.5t6.5 -3.5t8 -4zM138 -10
q-4 0 -13 -0.5t-18 -0.5q-16 0 -23.5 18.5t-7.5 39.5q0 17 7 28q2 2 5 12.5t8 13.5t16 3q19 0 32.5 -10t25.5 -12q11 -2 11 -14q0 -18 -8 -38q-10 -27 -17 -33.5t-18 -6.5z" />
    <glyph glyph-name="quotedbl" unicode="&#x22;" horiz-adv-x="292" 
d="M162 385q-5 0 -12 7.5t-7 16.5q0 3 3.5 11t5.5 15l37 141q13 52 17 82q1 8 2.5 11.5t8 6.5t19.5 3q12 0 18 -6q8 -8 14 -9q21 -4 21 -21q0 -8 -4 -25.5t-12 -44.5t-11 -39l-35 -136q-5 -20 -33 -20q-14 0 -23 4zM285 460l25 96q20 81 22 97q0 5 1 7.5t4 5.5t8.5 4t14.5 1
q29 0 36 -11q3 -5 8.5 -12t7 -11.5t1.5 -10.5q0 -9 -6.5 -32t-16 -50.5t-10.5 -32.5l-34 -126q-5 -17 -26 -17q-22 0 -34 5q-9 4 -15 20q-2 6 -2 9l3 10q3 10 7 24.5t6 23.5z" />
    <glyph glyph-name="numbersign" unicode="#" horiz-adv-x="528" 
d="M270 244l11 1q11 1 22.5 2t14.5 1q6 0 10 9l27 70q5 14 5 16q0 5 -7 5q-1 0 -8.5 -0.5t-17.5 -1t-18 -0.5q-9 0 -12 -9l-27 -71q-5 -14 -5 -16q0 -6 5 -6zM336 418q1 0 24 1.5t24 1.5q8 0 11 7l56 146q5 13 15 32.5t12 29.5t20 10h7q22 0 38 -12q14 -10 14 -20
q0 -13 -6 -22q-17 -25 -29 -51q-15 -30 -42 -96q-6 -14 -6 -17q0 -4 5 -4h5q5 1 12 1.5t15 1t16.5 1t13.5 0.5q20 0 30 -1q8 -1 9 -6q3 -12 3 -24q0 -7 -6 -11t-8 -12q-3 -9 -9 -15q-5 -5 -15 -5h-27q-7 0 -31.5 -0.5t-30.5 -0.5q-9 0 -14 -11q-16 -36 -28 -67
q-5 -13 -5 -17q0 -5 6 -5h59q39 0 41 -9q2 -8 4.5 -11t2.5 -6q0 -7 -3.5 -16.5t-4.5 -12.5q-3 -19 -19 -19h-5q-21 0 -36.5 0.5t-23 1t-9.5 0.5q-27 0 -32 -1q-9 -1 -13 -12q-9 -26 -30 -76t-27 -65q-25 -63 -33 -66q-4 -1 -11 -1q-31 0 -34 5q-2 3 -6 7.5t-6 7.5t-2 7
q0 5 9 32q5 16 10.5 25.5t5.5 10.5l38 97q5 14 5 16q0 5 -5 5q-2 0 -23 -1.5t-25 -1.5q-8 0 -13 -12q-41 -103 -53 -131l-22 -50q-8 -17 -22 -17t-20 2.5t-9 2.5q-12 0 -16 7q-3 5 -3 15t8 32q1 3 5.5 13t12.5 27.5t15 36.5l21 53q5 14 5 16q0 5 -5 5q-19 0 -41 -2.5
t-35 -2.5q-12 0 -15 3.5t-3 11.5q0 9 2.5 13.5t2.5 5.5q0 2 -1.5 4.5t-1.5 5.5q0 4 8 17q7 12 20 14q10 2 87 2q11 0 15 10l29 72q6 16 6 18q0 4 -6 4q-14 0 -31 -1.5t-30 -1.5q-28 0 -34 2.5t-6 13.5q0 4 5 17t6 18q3 15 10 20t22 5q5 0 31 -1.5t53 -1.5q11 0 16 13l55 145
q19 51 26.5 61.5t25.5 10.5h6q8 0 15.5 -3.5t8.5 -3.5q21 0 21 -25q0 -17 -14 -37q-11 -17 -14 -23q-16 -36 -49 -114q-6 -14 -6 -17q0 -5 6 -5z" />
    <glyph glyph-name="dollar" unicode="$" horiz-adv-x="378" 
d="M246 202l-37 -116q-6 -19 -6 -25t10.5 -11t20.5 -5q18 0 28 16q8 13 8 43q0 45 -13 101q-3 13 -5 13q-1 0 -6 -16zM270 483q11 36 30 84q6 16 6 19q0 4 -8 8t-16 4q-5 0 -11 -5t-12 -22t-6 -44q0 -15 4 -35q5 -25 7 -25q1 0 6 16zM151 114q8 28 32 99t29 91q3 11 3 17
t-7 29q-37 122 -37 169q0 73 56 122q24 21 64 21q11 0 19.5 -1t12.5 -2.5t5 -1.5q3 0 4 4q13 37 18 58q4 17 46 17q30 0 30 -13q0 -7 -5 -20t-6 -21q-1 -9 -13.5 -30t-12.5 -24t9 -9q40 -28 66 -81q2 -4 2 -14q0 -8 -9 -21q-5 -6 -13 -11.5t-10 -7.5q-3 -3 -13 -3t-16 3
t-8 3q-8 0 -13 8q-5 10 -11 18q-8 11 -8 14q0 7 -3 11q-3 5 -5 5t-18 -51q-8 -27 -19 -58t-16 -46.5t-5 -20.5q0 -4 6 -24l21 -73q30 -104 30 -158q0 -81 -54 -117q-20 -13 -66 -13q-10 0 -18 1t-13.5 2t-9.5 2t-7 2l-2 1q-4 0 -5 -4t-2 -12t-2 -17.5t-1 -11.5
q-4 -23 -24 -34q-6 -3 -13 -3q-6 0 -15 2.5t-16 2.5q-15 0 -15 11q0 23 21 79q4 11 4 12q0 3 -10 10q-31 22 -51 59q-3 5 -15.5 19.5t-19 31.5t-6.5 45q0 18 6.5 31t15.5 15q12 2 25 2q11 0 16.5 -1t9.5 -3.5t6 -3.5q29 -11 29 -30q0 -2 -3 -14.5t-3 -18.5q0 -23 19 -48
q7 -9 8 -9q2 0 6 14z" />
    <glyph glyph-name="percent" unicode="%" horiz-adv-x="632" 
d="M511 264q-6 0 -14 -13q-34 -55 -52 -108q-12 -36 -12 -61q0 -46 17 -46q16 0 30 33q6 14 26 59q28 62 28 96q0 17 -8 23q-5 4 -8 10q-3 7 -7 7zM296 603q-5 0 -14 -13q-64 -97 -64 -159q0 -59 20 -59q7 0 25 32q55 100 55 155q0 15 -6 18q-11 5 -11 17q0 9 -5 9zM581 294
q30 -22 30 -70q0 -62 -27 -123q-16 -38 -35 -67q-29 -47 -90 -47q-60 0 -80 33q-24 40 -24 70q0 62 41 140q28 53 49 72t59 19q26 0 46 -9q17 -8 31 -18zM398 557q-4 0 -4 -5q0 -34 -14 -79q-18 -56 -50 -102q-37 -53 -84 -53q-37 0 -56.5 16t-33.5 44q-16 32 -16 64
q0 44 39 127q18 39 48.5 66t70.5 27q28 0 40 -12q9 -9 21 -14q41 -17 65 -17q77 0 97 30q8 12 24 12q25 0 36 -10t11 -25q0 -32 -16 -46q-20 -18 -45 -62l-255 -442q-44 -77 -51 -89q-9 -14 -35 -14q-21 0 -34 13q-6 6 -6 17q0 36 6 39q11 6 20 20q9 15 19 23.5t28 41.5
q212 377 230 408q9 15 9 18t-4 3h-4q-3 0 -9.5 -0.5t-14.5 -0.5h-6q-9 0 -18 1z" />
    <glyph glyph-name="ampersand" unicode="&#x26;" horiz-adv-x="430" 
d="M295 442q20 26 30 46q5 9 8 21.5t4 14.5q9 16 9 27q0 18 -6 18q-7 0 -18 -10t-14 -16q-29 -48 -29 -88q0 -29 2 -29t14 16zM207 233q-18 -20 -50 -69q-30 -45 -30 -69q0 -12 5.5 -18t11.5 -6q4 0 15.5 3t35.5 12t47 22q10 6 10 10q0 3 -3 18l-19 103q-2 14 -4 14t-19 -20
zM328 -13q-1 0 -4 -1t-10 -1q-17 0 -26 9q-8 8 -8 13q0 3 -3.5 13.5t-3.5 14.5q0 3 -2 3t-9 -4q-33 -18 -40 -20q-36 -10 -58 -13q-7 -1 -21 -1q-34 0 -50 7q-10 4 -17 14t-13 22t-9 16q-9 11 -9 37q0 32 9 52q26 57 91 131q8 9 23 25t26 27.5t12 13.5q3 5 3 11q0 1 -1 10
t-2 28t-1 42q0 30 8 65q15 62 45.5 94.5t69.5 32.5q33 0 48 -10q6 -4 11.5 -12t6.5 -9q22 -22 22 -47q0 -34 -18 -82q-9 -26 -95 -125q-8 -9 -8 -15q0 -4 2 -16q3 -19 24 -128q2 -12 4 -12q3 0 7 4q3 3 8.5 9t6.5 7q9 9 29 23q15 11 32 11q10 0 13 -1.5t5 -8.5q2 -6 2 -16
q0 -50 -28 -68q-5 -3 -15 -13t-30 -24q-12 -8 -12 -14q0 -4 2 -12q17 -67 17 -77q0 -8 -14 -8q-7 0 -12.5 1.5t-7.5 1.5z" />
    <glyph glyph-name="quotesingle" unicode="'" horiz-adv-x="194" 
d="M176 386q-21 5 -21 27q0 6 4 15t5 14l32 120q12 46 19 96q1 11 5 15.5t8.5 5.5t16.5 1q9 0 15.5 -2.5t8.5 -5t5 -5.5t5 -4q21 -7 21 -27q0 -10 -5 -28t-13.5 -45.5t-13.5 -48.5l-27 -114q-2 -8 -11.5 -16t-22.5 -8q-10 0 -19.5 4.5t-11.5 5.5z" />
    <glyph glyph-name="parenleft" unicode="(" horiz-adv-x="272" 
d="M112 265q24 89 77 206t129 221q10 14 16.5 17t14.5 13q9 11 28 11q30 0 30 -36q0 -30 -15 -74q-5 -16 -29 -16q-10 0 -25 -21q-67 -96 -124 -237q-65 -161 -65 -303v-25q0 -14 9.5 -36t9.5 -35q0 -26 -14 -40q-6 -6 -23 -6q-9 0 -16.5 6.5t-10.5 6.5q-27 4 -27 116
q0 32 9 100.5t26 131.5z" />
    <glyph glyph-name="parenright" unicode=")" horiz-adv-x="272" 
d="M49 21q5 0 21 17q27 31 43 56t48 89q66 133 78 311q4 58 4 105q0 27 -1 32q-2 14 -9 27t-7 24q0 12 2 19t4 8.5t5 3t5 3.5q15 17 33 17q20 0 31.5 -14.5t14.5 -32.5q3 -16 3 -69q0 -39 -3 -79q-19 -262 -124 -442q-61 -104 -133 -170q-15 -14 -21 -16.5t-19 -2.5
q-16 0 -23 7t-7 14q0 12 -4 22t-4 14q0 5 5 10t12.5 10t9.5 7q8 10 21 23q7 7 15 7z" />
    <glyph glyph-name="asterisk" unicode="*" horiz-adv-x="339" 
d="M356 533q0 -2 3 -2l12 3l27 4.5t22 2.5q12 0 17.5 -0.5t10 -3.5t4.5 -9q0 -3 0.5 -9t0.5 -10l-7 -21q-4 -13 -17 -13q-26 0 -88 -12q-5 -1 -5 -3q0 -1 4 -10q26 -61 27 -63q7 -9 7 -21q0 -5 -2.5 -9.5t-7.5 -9.5l-5 -5q-9 -10 -13 -12.5t-14 -2.5q-12 0 -19 10
q-15 20 -28 59q-5 15 -6 15q-2 0 -6 -8q-2 -4 -6 -11t-8.5 -15t-8.5 -20q-5 -12 -21 -23q-6 -4 -31 -4q-10 0 -16 3q-15 7 -15 20q0 3 7 14q43 71 52 85q6 10 6 11q0 2 -14 3q-17 1 -33 1q-36 0 -43 7q-4 4 -4 12q0 12 2.5 21.5t2.5 11.5t6 12q4 8 19 8q8 0 19 -3
q2 -1 42 -4q8 -1 11 -1t3 3t-2 13q-7 37 -10 44q-9 23 -9 40q0 8 3.5 12t10.5 8.5t10 7.5q12 12 26 12q11 0 14 -3.5t7 -18.5q2 -9 6 -40q0 -3 4 -21q1 -8 3 -8q1 0 6 7q5 8 16.5 23.5t13.5 19.5q12 19 17.5 23.5t18.5 4.5h17q15 0 22 -3q13 -5 13 -13q0 -9 -10 -24
q-6 -9 -17.5 -22.5t-12.5 -14.5q-6 -9 -15 -22t-10 -14q-9 -11 -9 -12z" />
    <glyph glyph-name="plus" unicode="+" horiz-adv-x="480" 
d="M330 305q12 0 49 6q41 6 50 6q28 0 37 -15q2 -3 2 -12q0 -14 -11 -36q-5 -10 -7 -12t-11 -2q-3 0 -7.5 0.5t-6.5 0.5q-8 0 -15 -1q-36 -5 -87 -10q-15 -1 -20 -3q-4 -1 -7 -9q-23 -70 -37 -145q-4 -21 -7 -24q-6 -7 -20 -7q-3 0 -9 -3.5t-16 -3.5q-15 0 -22 4t-7 11
q0 19 9 55q3 10 10.5 33.5t12.5 44.5l5 19q3 11 3 13q0 3 -4 3h-23q-20 0 -48.5 4t-32.5 6q-12 7 -12 57q0 6 9 15q7 7 22 7q9 0 19 -3q21 -6 64 -6h21q10 0 14 13q19 57 28 93q13 54 22 55q5 1 17.5 7t25.5 6q33 0 33 -14q0 -4 -4 -16l-11 -34q-15 -50 -28 -89
q-3 -9 -3 -11q0 -3 3 -3z" />
    <glyph glyph-name="comma" unicode="," horiz-adv-x="216" 
d="M-20 -151q-5 0 -8.5 8.5t-3.5 14.5q0 7 7 20l62 117q22 44 46 94q6 13 13 17.5t23 4.5q13 0 21 -5q9 -7 13 -16q3 -6 6.5 -12t5 -10t1.5 -11t-3 -12l-117 -197q-12 -20 -21 -20h-8q-13 0 -23 3.5t-14 3.5z" />
    <glyph glyph-name="hyphen" unicode="-" horiz-adv-x="373" 
d="M112 244q-10 20 -10 47q0 9 3 13q9 11 38 11q27 0 70 -1.5t63 -1.5q8 0 28.5 1.5t32.5 1.5q35 0 35 -15q0 -40 -13 -56q-3 -4 -18 -6q-11 -2 -19.5 -5t-22.5 -4t-49 -1q-14 0 -31.5 1t-32.5 2t-28 2t-21 2t-9 1q-11 0 -16 8z" />
    <glyph glyph-name="period" unicode="." horiz-adv-x="235" 
d="M184 76q0 -11 -10 -41q-9 -26 -19 -33.5t-33 -7.5q-21 0 -31 8q-13 11 -19 27q-6 13 -6 23q0 11 8 20q9 10 12.5 27t9.5 24q8 9 36 9q30 0 44 -26q8 -14 8 -30z" />
    <glyph glyph-name="slash" unicode="/" horiz-adv-x="328" 
d="M422 694q14 0 28.5 -15.5t14.5 -28.5t-13 -30q-12 -15 -21 -23t-17 -21q-103 -167 -303 -564q-29 -57 -53 -85q-4 -5 -14 -5q-22 0 -31 7q-16 13 -16 27q0 13 17 47q1 2 12.5 20.5t17.5 29.5l290 544q13 23 31.5 50.5t23.5 32.5q14 14 33 14z" />
    <glyph glyph-name="zero" unicode="0" horiz-adv-x="360" 
d="M312 524q-6 0 -13 -9q-92 -118 -150 -268q-4 -9 -14 -51q-17 -74 -17 -80q0 -39 5 -54q8 -24 18 -24q5 0 14 5t31 31.5t46 71.5q3 6 10.5 17t19.5 37q77 169 77 255q0 23 -9.5 46t-17.5 23zM329 575q2 0 6 1t7 1q19 0 36 -13q25 -20 28 -30q13 -41 13 -81q0 -54 -17 -123
q-10 -38 -34 -100q-1 -1 -4.5 -12.5t-8 -21.5t-12.5 -28t-22 -43.5t-32 -56.5q-59 -100 -132 -100q-25 0 -59.5 26.5t-47.5 64.5q-5 12 -5 61q0 38 9 80q17 81 49 153q41 93 145 231q7 9 41 9q11 0 19 -4q5 -2 11.5 -8t9.5 -6z" />
    <glyph glyph-name="one" unicode="1" horiz-adv-x="360" 
d="M273 375q-62 -86 -105.5 -139.5t-57 -67.5t-15.5 -18q-5 -9 -30 -9q-9 0 -12.5 1t-6 4.5t-3.5 3.5q-12 9 -15 13q-10 13 -10 25q0 6 18 25q30 32 54 50q13 10 34 37q111 140 172 226q15 21 41 62t27 46q1 11 24 11q47 0 57 -30q1 -3 1 -9t-7 -24q-27 -71 -51 -150.5
t-52.5 -189t-41.5 -155.5q-12 -43 -12 -62q0 -11 -5 -26q-6 -19 -23 -19q-4 0 -11.5 -1.5t-12.5 -1.5q-33 0 -43 15q-2 3 -2 15t6 39q3 15 10.5 31.5t9.5 24.5q12 47 37.5 134t34.5 121q10 37 10 38q0 2 -2 2t-18 -22z" />
    <glyph glyph-name="two" unicode="2" horiz-adv-x="360" 
d="M187 441q-3 0 -8 -2.5t-14 -2.5q-12 0 -22 12q-9 10 -9 33q0 15 5 27q4 9 19 30q23 33 77 72q27 20 48 26t60 6q26 0 54 -30t28 -52q0 -5 -2 -21q-8 -65 -46.5 -135.5t-81 -119.5t-94.5 -108.5t-74 -91.5q-9 -14 -9 -17q0 -5 10 -11t47 -6q33 0 51 5t31 21q12 14 20.5 35
t13.5 29q10 14 44 14q14 0 18 -4q9 -9 11 -12q5 -8 5 -16q0 -12 -14 -55.5t-23 -54.5q-13 -18 -44 -25t-109 -7q-64 0 -88 3q-45 5 -55 17q-26 29 -26 57q0 17 11 33q25 37 113 134q177 194 206 311q5 20 5 30q0 14 -10 14q-20 0 -57 -35.5t-37 -47.5q0 -2 -5 -8t-11.5 -14
t-8.5 -13q-9 -20 -29 -20z" />
    <glyph glyph-name="three" unicode="3" horiz-adv-x="360" 
d="M267 292q-6 0 -16 -5q-2 -1 -8.5 -2.5t-16.5 -7.5q-2 -1 -15 -9.5t-19 -12.5q-25 -13 -45 -13q-23 0 -28 8q-9 13 -9 37q0 6 39 32q6 4 12.5 11.5t10.5 10.5q59 46 97 107.5t52 104.5q2 6 2 8t-2 2q-3 0 -14 -7q-26 -16 -50.5 -37.5t-25.5 -33.5q-1 -8 -4.5 -13t-9.5 -9
t-9 -8q-6 -7 -39 -7q-6 0 -8.5 1t-5.5 5t-7 14q-6 15 -6 21q0 5 2 13q3 11 9.5 21t12 15.5t15.5 14.5t14 13q9 9 14 10q7 2 13 5.5t12.5 8t11.5 7.5q1 1 7.5 5t15.5 9t16 8q28 12 50 12q30 0 41 -11q7 -7 19 -12q10 -4 16 -21q4 -11 4 -18q0 -13 -9 -31q-4 -9 -6.5 -19.5
t-10.5 -24.5q-49 -87 -96 -138q45 -4 61.5 -33.5t16.5 -63.5q0 -57 -39 -143q-31 -70 -68 -110t-95 -40q-69 0 -136 108q-5 7 -9 23q-3 10 -3 16q0 20 22 20q14 0 25 0.5t13 0.5q15 0 20 -7q2 -3 10 -12.5t11 -15.5t3 -12q0 -12 17.5 -31.5t28.5 -19.5q10 0 27 18
q39 42 65 102q27 64 27 86t-7 36t-16 14z" />
    <glyph glyph-name="four" unicode="4" horiz-adv-x="360" 
d="M263 447q-66 -84 -140 -189q-7 -10 -7 -16q0 -4 4 -7q20 -13 53 -13q19 0 35 4q10 2 12 13q21 100 57 207q5 15 5 18q0 2 -2 2t-17 -19zM306 246q2 0 18 4t53 4q19 0 25.5 -8.5t11.5 -30.5q1 -4 1 -8q0 -19 -27 -19q-18 0 -38 -4q-32 -6 -60 -13q-23 -52 -31 -141
q-1 -6 -2 -10t-1 -9q-2 -18 -19 -18q-21 0 -35 10q-5 3 -12 9.5t-8 7.5q-7 4 -7 18q0 2 7 36.5t8 39.5q10 34 10 39q0 4 -4 4q-45 0 -79 4q-28 3 -50 15q-5 2 -10 9q-8 10 -17.5 30.5t-9.5 32.5q0 2 0.5 7.5t0.5 10.5t9 16t67 87t101 127t90 98q14 14 19 22q12 22 33 22
q13 0 25 -5q23 -11 23 -24q0 -7 -2 -17q-2 -11 -9 -31.5t-8 -30.5q-3 -26 -34.5 -127t-39.5 -142q-2 -10 -2 -13q0 -2 3 -2z" />
    <glyph glyph-name="five" unicode="5" horiz-adv-x="360" 
d="M253 589q3 0 13.5 2t29.5 5.5t34 5.5q71 11 90 11q16 0 33 -11.5t23 -25.5q4 -9 4 -17q0 -9 -8.5 -18t-27.5 -9q-5 0 -20.5 3t-27.5 3q-46 0 -151 -26q-6 -1 -8 -10q-4 -13 -14 -46t-14 -45q-3 -10 -3 -11q0 -2 2 -2t8 3q20 10 52 10q36 0 58.5 -11t35.5 -40
q13 -28 13 -60q0 -30 -6 -60q-12 -59 -49 -130q-73 -142 -152 -142q-47 0 -79.5 25t-63.5 70q-18 26 -18 37q0 6 6 10l16 16q12 12 29 12q19 0 31 -10t20 -31t13 -29q24 -35 40 -35q10 0 43 44q28 38 55 108q3 8 8 26t8 28q14 42 14 67q0 44 -19 44q-6 0 -19.5 -6.5
t-36.5 -25t-45 -44.5q-10 -11 -23 -11q-22 0 -30 4q-3 1 -18 12q-9 6 -9 12q0 5 6 23q17 52 44 138.5t35 111.5q3 9 23 21q17 10 35 10q9 0 12.5 -3t7.5 -3z" />
    <glyph glyph-name="six" unicode="6" horiz-adv-x="360" 
d="M285 222q7 14 7 18t-4 4t-21 -9q-39 -21 -70 -46t-42 -37t-13 -17q-4 -7 -12.5 -19.5t-12.5 -22t-4 -21.5q0 -11 7 -22t11 -11q8 0 30.5 17t42.5 39q41 48 81 127zM188 276q29 22 36 24q6 2 21 8t19 8q26 10 47 10q37 0 45 -17q3 -6 10.5 -19.5t11.5 -22t4 -14.5
q0 -3 -6 -21q-50 -151 -168 -240q-24 -18 -64 -18q-31 0 -54 14q-7 4 -13 11t-10 10q-38 32 -38 71q0 29 11 62q40 121 90 215t72.5 122t37.5 42q11 10 26 27t25 27q37 37 71 37q19 0 35 -10q15 -9 17 -20t2 -23q0 -15 -26 -15q-7 0 -11.5 0.5t-7.5 0.5q-5 0 -31 -26
q-49 -49 -93 -116t-64 -114q-6 -15 -6 -17t2 -2q1 0 9 6z" />
    <glyph glyph-name="seven" unicode="7" horiz-adv-x="360" 
d="M169 262q-7 0 -32 4t-28 8q-8 13 -8 40q0 1 -0.5 4.5t-0.5 4.5q0 8 6 14q5 5 17 5q17 0 24 -4q18 -9 41 -9q28 0 33 8q20 33 49 75.5t42.5 66.5t26.5 58q3 8 3 14q0 9 -21 9q-62 0 -93 -17t-34 -56q-1 -15 -29 -15q-29 0 -36 15q-4 7 -5 28.5t-3 27.5t-2 12q0 9 1 15
q3 19 45 31q74 20 164 20q58 0 74 -10q12 -8 25.5 -24t13.5 -32q0 -21 -40 -86q-25 -40 -73 -108q-6 -8 -6 -11t4 -3q1 0 6 0.5t11 0.5q23 0 34 -4.5t20 -17.5q5 -7 5 -14q0 -21 -6 -27q-3 -3 -10 -3t-14 1.5t-10 1.5q-28 0 -51.5 -7.5t-44.5 -10.5q-128 -206 -128 -271
q0 -6 -9 -9q-1 0 -9.5 -9t-20.5 -9q-24 0 -36 20q-15 24 -15 26q0 38 117 232q6 10 6 12q0 3 -3 3z" />
    <glyph glyph-name="eight" unicode="8" horiz-adv-x="360" 
d="M351 544q-1 0 -3 -1t-5 -1q-8 0 -11 7q-4 8 -4 16q0 4 -3 4q-9 0 -25 -22q-5 -7 -15 -24q-17 -30 -25 -104q-2 -14 -2 -24q0 -6 2 -6q3 0 24 13q7 4 23.5 12t31 17t27.5 21q14 13 14 36q0 24 -11 41q-10 15 -18 15zM153 229q-26 -18 -40 -43q-12 -22 -12 -40q0 -30 9 -48
q14 -27 27 -44q6 -7 7 -7q2 0 4 6q11 32 14 80q3 35 3 96q0 5 -2 5q-3 0 -10 -5zM161 321q8 5 9.5 10t2.5 22q1 49 6 81q21 150 84 194q23 16 48 16q26 0 50 -13q7 -4 11 -12.5t9 -11.5q47 -25 72 -125q3 -12 3 -27q0 -40 -34 -62q-75 -47 -159 -93q-13 -7 -14 -18
q-2 -24 -2 -43q0 -87 -6 -157q-3 -38 -13 -72t-27 -37q-30 -6 -34 -6q-33 0 -50 13q-36 28 -65 74.5t-29 94.5q0 26 9 52q8 22 25 41.5t31 30t39.5 26.5t33.5 22z" />
    <glyph glyph-name="nine" unicode="9" horiz-adv-x="360" 
d="M144 333q11 0 36 13q64 33 114 83t72 93q7 14 7 17q0 2 -2 2q-3 0 -12 -5q-43 -24 -61.5 -35t-52 -34.5t-57.5 -49.5t-44 -59q-8 -13 -8 -18q0 -7 8 -7zM256 299q-20 -15 -39 -21q-4 -1 -12.5 -2.5t-13.5 -3.5q-17 -7 -40 -7q-25 0 -38 12q-6 5 -10 8t-5 4q-8 8 -17 26
q-14 28 -14 36q0 18 8 34q20 39 51 73t53.5 50.5t68.5 45.5t61 40q11 8 29 15q25 10 45 10q22 0 29 -7q1 -1 11.5 -9.5t22.5 -22.5q18 -19 18 -26q0 -22 -21 -56q-11 -18 -16 -31q-13 -35 -50 -112t-55 -133q-2 -5 -17.5 -48t-29.5 -86.5t-20 -77.5q-3 -17 -15 -25
q-11 -8 -24 -8q-16 0 -23 6q-26 23 -26 36q0 5 8 27q20 55 81 229q8 23 8 25t-2 2t-6 -3z" />
    <glyph glyph-name="colon" unicode=":" horiz-adv-x="240" 
d="M284 372q0 -2 -3 -17.5t-3 -19.5q-2 -13 -19 -37q-7 -11 -22 -11q-10 0 -33 8q-29 10 -29 34q0 14 2.5 25.5t4.5 17t7 14.5t6 10q9 18 13.5 21t22.5 3q23 0 38 -18q15 -19 15 -30zM198 124q8 -9 19 -18q9 -6 9 -52q0 -6 -4 -21.5t-7 -16.5q-2 -1 -8.5 -5t-15 -7t-19.5 -3
q-19 0 -27 8q-3 3 -10 15q-3 5 -6.5 10t-5.5 7t-3 6t-1 9q0 3 1 6.5t3 11.5t4 17q11 46 40 46q20 0 31 -13z" />
    <glyph glyph-name="semicolon" unicode=";" horiz-adv-x="232" 
d="M253 368q6 -6 6 -14q0 -29 -14 -54q-7 -12 -21 -12q-1 0 -16.5 -0.5t-23.5 -0.5q-41 0 -41 29q0 34 21 68q11 19 16.5 22.5t18.5 3.5q29 0 38 -19q8 -15 16 -23zM-41 -200q-15 3 -15 23q0 12 13 34q38 64 77 144t52 105q9 16 12.5 19t15.5 3q18 0 27 -9q4 -4 9.5 -8.5
t8.5 -7t5 -8.5t2 -16v-11q0 -9 -3 -15.5t-9 -12.5t-8 -10q-17 -30 -57 -103t-68 -120q-8 -14 -28 -14q-7 0 -14 1.5t-12.5 3.5t-7.5 2z" />
    <glyph glyph-name="less" unicode="&#x3c;" horiz-adv-x="480" 
d="M458 396q-5 0 -42 -26q-4 -3 -17 -8t-26 -13q-66 -43 -128 -87q-37 -26 -37 -30t10 -11q12 -9 41 -34t45 -36q53 -36 64 -36q15 0 19 -7q6 -12 6 -17q0 -6 -3 -11.5t-10 -14t-9 -10.5q-12 -16 -36 -16q-16 0 -27.5 6t-44.5 29q-20 14 -143 116q-13 11 -13 26q0 10 7 27
q0 1 5.5 8t7.5 15t12 16t51 36q74 48 126 86q69 51 88 57q3 1 7 4t8 5h2t4.5 0.5t8.5 0.5q29 0 29 -28q0 -6 2.5 -14.5t2.5 -10.5q0 -4 -3.5 -13t-6.5 -9z" />
    <glyph glyph-name="equal" unicode="=" horiz-adv-x="480" 
d="M352 373q83 10 98 10q28 0 34 -10q3 -5 3 -17q0 -18 -11 -40q-4 -9 -20 -9q-18 0 -44 -3l-127 -14q-7 -1 -33 -1q-30 0 -70 4.5t-48 6.5q-12 3 -12 42q0 19 10 29q7 7 20 7q14 0 20 -2q30 -10 76 -10q43 0 104 7zM417 178q-5 0 -29 -4q-66 -11 -137 -11h-21
q-103 0 -110 7q-19 19 -19 51q0 7 2.5 11.5t3.5 7.5q3 9 23 9q4 0 41.5 -6t72.5 -6q8 0 24.5 1t29.5 1q31 0 74 8q31 6 56 6q23 0 30 -8q8 -10 8 -16q0 -10 -12 -44q-3 -9 -16 -9q-6 0 -13 1t-8 1z" />
    <glyph glyph-name="greater" unicode="&#x3e;" horiz-adv-x="480" 
d="M349 296q-97 73 -99 75q-14 9 -27 20.5t-23 16.5q-12 6 -12 27q0 15 5 25q4 8 8 17t5 11q4 9 20 9q13 0 17 -6q6 -9 14 -14q13 -8 20.5 -16.5t16.5 -15.5q51 -40 157 -126q12 -10 12 -24q0 -19 -7 -29q-5 -7 -8.5 -11t-4.5 -5.5t-2 -3.5q-6 -12 -12 -17.5t-36 -26.5
q-12 -8 -51 -35t-69 -48t-37 -27q-33 -27 -52 -36q-12 -5 -43 -5q-21 0 -27.5 3t-7.5 12q-1 7 -4 15.5t-3 10.5q0 9 11 20q5 5 20 11q11 4 53 32q117 77 143 95q27 19 32 23t5 8t-14 15z" />
    <glyph glyph-name="question" unicode="?" horiz-adv-x="296" 
d="M230 269q4 0 11 1t18 1q19 0 30 -4.5t15 -8.5l4 -4q7 0 11 -13q4 -12 4 -21q0 -10 -16 -14q-1 0 -5 -2t-10.5 -3.5t-15.5 -1.5q-81 0 -121 22q-10 5 -13 9.5t-9 19.5t-6 23q0 1 -0.5 5t-0.5 5q0 6 12 28q30 57 113 155q65 76 65 98q0 11 -8.5 20.5t-14.5 9.5q-7 0 -12 -4
q-25 -18 -25 -40q0 -2 0.5 -10.5t0.5 -11.5q0 -22 -29 -22q-17 0 -24 5t-15 18q-3 5 -3 21q0 55 22 77q32 32 77 32t74 -22q34 -24 34 -60q0 -34 -8 -55q-7 -19 -24 -40.5t-66 -77.5q-35 -40 -60.5 -76t-25.5 -43t8 -11.5t13 -4.5zM201 66q9 -10 9 -17q0 -28 -9 -39
q-23 -27 -49 -27q-30 0 -36 16q-1 2 -8.5 12t-7.5 15q0 7 7 30q8 28 17 35.5t26 7.5q11 0 20 -5q11 -7 31 -28z" />
    <glyph glyph-name="at" unicode="@" horiz-adv-x="568" 
d="M295 219q3 0 13 11q25 27 46.5 56.5t31.5 47t10 21.5q0 1 -2 5t-2 7q0 11 9 22q26 31 26 48q0 5 -3.5 10.5t-7.5 5.5q-6 0 -16 -9q-22 -20 -47.5 -60.5t-32.5 -61.5q-5 -16 -13 -31.5t-10 -25.5q-4 -16 -4 -34q0 -12 2 -12zM372 190q-11 -17 -31 -31t-41 -14q-13 0 -22 4
q-8 4 -13 8t-9.5 9t-6.5 6q-26 22 -26 71q0 29 14 75q24 77 58 121q58 76 108 76q22 0 43.5 -19.5t26.5 -31.5q4 -10 4 -22q0 -6 10 -14q8 -5 8 -15q0 -12 -6 -26q-32 -77 -41 -105t-9 -52q0 -17 10 -17q7 0 25 23q34 44 52 104.5t18 110.5q0 45 -12 76.5t-31.5 46.5
t-38.5 21t-40 6q-18 0 -43 -9t-67 -47.5t-77 -102.5q-37 -68 -54 -137t-17 -110q0 -67 31 -108.5t79 -41.5q57 0 117 50q14 12 29 12q38 0 45 -32q0 -1 4 -6.5t4 -21.5q0 -6 -5 -9t-14 -6t-14 -7q-73 -57 -162 -57q-34 0 -67.5 14t-51.5 33q-70 77 -70 182q0 64 14 125
q21 90 76 185q50 87 111 125.5t117 38.5q60 0 95.5 -17t67.5 -61q49 -66 49 -159q0 -124 -78 -240q-36 -53 -88 -53q-31 0 -56 21q-15 12 -18 28q-1 4 -3 4q-1 0 -4 -4z" />
    <glyph glyph-name="A" unicode="A" 
d="M167 207q15 0 69 25q8 4 18.5 8.5t22 10t14.5 6.5q5 2 6 10q36 218 36 247q0 8 -3 8q-2 0 -25 -42q-68 -126 -129 -246q-12 -24 -12 -25q0 -2 3 -2zM389 296h5q5 1 13 1.5t16 0.5q45 0 56 -19q4 -7 4 -8q0 -9 -4 -16q-7 -13 -21.5 -18.5t-44.5 -7.5q-21 -1 -30 -10
q-8 -7 -10 -27l-11 -92q0 -3 -1 -12.5t-1.5 -24.5t-1.5 -26q-1 -18 -1 -35q0 -23 2.5 -40.5t4.5 -25t2 -8.5q0 -8 -17 -25q-4 -4 -17 -4q-35 0 -48 19q-9 13 -9 71q0 40 10 136q4 38 4 46q0 3 -2 3q-3 0 -20 -7q-90 -37 -129 -45q-11 -2 -16 -15q-19 -44 -19 -106
q0 -7 0.5 -12.5t0.5 -6.5q0 -3 -5 -7l-8.5 -8.5t-14.5 -11t-17 -3.5q-12 0 -23 10q-18 15 -18 44q0 26 4 52t8.5 42t4.5 17q0 4 -4 7q-14 10 -19 15.5t-5 14.5t6 29t9 25q3 6 17 6t21.5 -5t8.5 -5q3 0 6 7q113 226 249 449q16 26 20 26q12 0 25 6t34 6q31 0 34 -10
q0 -2 2.5 -7.5t2.5 -7.5q0 -12 -14 -73q-3 -14 -5 -32t-3 -23q-7 -34 -15.5 -94.5t-13.5 -103.5t-5 -46q0 -5 3 -5z" />
    <glyph glyph-name="B" unicode="B" horiz-adv-x="464" 
d="M393 318q-7 11 -24 11q-20 0 -52 -21q-12 -7 -46 -33q-23 -18 -36 -24t-34 -9q-6 -1 -8 -10t-11 -43t-15.5 -61t-6.5 -35q0 -20 34 -48.5t63 -28.5q24 0 50 40.5t64 124.5q28 62 28 114q0 14 -6 23zM220 331q6 0 24 24q1 2 14 21.5t17 24.5q7 9 26.5 32t33.5 42t27 38
q49 76 49 101q0 3 -2 3q-14 0 -38 -10q-29 -11 -65 -41q-11 -9 -12 -14q-2 -9 -9 -26t-8 -19q-3 -9 -19.5 -55t-25.5 -71q-14 -40 -14 -48q0 -2 2 -2zM88 180q2 0 5 10q42 165 89 299q6 17 6 19t-2 6q-4 8 -4 30q0 12 5 13q6 2 13 8q19 15 34 64q10 32 21 45q8 9 24 9
q15 0 31 -12t20 -12q2 0 20 9q26 12 58 12q53 0 83 -33q14 -16 14 -37q0 -43 -80 -147q-10 -13 -22 -30.5t-19 -29t-7 -12.5q0 -3 6 -6q2 -1 27 -4q13 -2 20 -5q30 -15 45 -43.5t15 -46.5q0 -38 -17 -89q-6 -18 -16 -39.5t-17.5 -35t-23.5 -41t-22 -37.5q-44 -77 -143 -77
q-64 0 -89 19q-2 2 -9.5 6t-14.5 9t-13 12q-3 -1 -7 -1q-10 0 -20 5q-4 2 -11 9t-21 23q-4 5 -4 12q0 11 -14.5 32t-14.5 25q0 12 -5 22t-5 24q0 10 10 13.5t39 3.5q5 0 10 -1h6z" />
    <glyph glyph-name="C" unicode="C" horiz-adv-x="386" 
d="M408 605q-4 0 -26 -13q-19 -12 -31 -25q-38 -39 -100 -135q-63 -97 -120 -269q-6 -18 -6 -59q0 -23 8 -34q2 -3 7.5 -10t7.5 -10q6 -9 12 -9q18 0 57 30q45 35 98 96q12 14 17 17q4 3 25 3h10q18 0 23 -4q6 -5 11 -16q4 -9 4 -15q0 -2 -1 -4t-2.5 -3t-4 -3.5l-4.5 -4.5
q-9 -10 -29.5 -34.5t-36 -41.5t-31.5 -31q-60 -53 -121 -53q-44 0 -69 15q-21 13 -40.5 36.5t-19.5 40.5v32q0 13 1 29q3 62 17 100q115 316 273 426q8 6 32 12t42 6q44 0 52 -18q0 -1 17.5 -25.5t17.5 -42.5q0 -12 -9 -34q-35 -86 -35 -88q-5 -18 -33 -18q-21 0 -32 4
q-7 2 -15 10.5t-8 19.5q0 16 9 32q2 4 8 13.5t10 17.5t6 17q1 3 6.5 13.5t5.5 20.5q0 9 -3 9z" />
    <glyph glyph-name="D" unicode="D" horiz-adv-x="451" 
d="M401 575q-8 0 -20.5 -4t-31 -12.5t-21.5 -9.5q-5 -2 -5 -10q0 -10 -6 -16q-8 -8 -13 -20q-7 -16 -33 -77.5t-36 -87t-29 -74t-31 -88t-21 -80.5q-9 -39 -9 -46q0 -5 4 -7q4 -3 16 -3q35 0 72 42q106 120 188 325q23 57 23 84q0 37 -5 48q-8 17 -21 26.5t-21 9.5zM78 124
q36 132 95 284q13 34 13 36t-2 2t-6 -3q-8 -5 -21 -5q-23 0 -23 23q0 8 2 23q2 14 10 26t16.5 20t35.5 30q91 75 181 75q61 0 84 -23q3 -3 18 -16t24 -24t16 -26q13 -26 13 -58q0 -54 -30 -118q-3 -7 -7 -18.5t-9 -23.5q-53 -117 -102 -196t-110 -124q-32 -24 -50 -30
q-15 -5 -35 -5q-13 0 -25.5 2t-19.5 4.5t-8 2.5l-2 -1q-1 -1 -6.5 -2.5t-16.5 -1.5q-37 0 -53 38q-32 17 -47 32.5t-15 38.5q0 17 17 17q16 0 25.5 -1.5t12.5 -1.5q7 0 10 -0.5t4 -1t2 -0.5q2 0 9 26z" />
    <glyph glyph-name="E" unicode="E" horiz-adv-x="414" 
d="M175 490q-16 0 -23 4t-12.5 21t-5.5 29q0 5 6 7l15 5q37 13 133 56q36 17 103 34.5t126 17.5q25 0 39 -11q31 -24 31 -46q0 -19 -14 -19q-4 0 -9.5 -3t-15.5 -3q-13 0 -20.5 5t-18.5 5q-75 0 -181 -44q-9 -4 -12 -6.5t-6 -10.5q-4 -10 -41 -106q-10 -26 -10 -27
q0 -2 2 -2q1 0 13 6q16 8 43 17t55 9q38 0 66 -21q9 -6 9 -24q0 -10 -5 -15t-22 -10q-6 -2 -25 -2q-11 0 -16.5 1t-10.5 1q-19 0 -68 -21q-57 -24 -73 -30q-7 -2 -12 -14q-75 -163 -75 -220q0 -11 4.5 -19.5t8.5 -8.5q24 0 56 17q17 9 29.5 15t18.5 8.5t8 3.5q4 2 65 45
q41 28 78 28q11 0 16 -6l9.5 -9.5t9 -10.5t2.5 -9q0 -9 -6 -12q-13 -6 -19 -14q-9 -11 -27 -23q-67 -46 -115 -66q-78 -32 -153 -32q-16 0 -35 11q-25 14 -32 30q-4 8 -4 31q0 7 1 20q2 29 9.5 61.5t15 53.5t21 57.5t19.5 52.5q-8 14 -8 32q0 8 3 13q2 4 23 11q10 3 14 14
q1 2 19 45.5t24 62.5q4 13 4 15t-2 2h-2q-2 -1 -7 -1.5t-13 -0.5z" />
    <glyph glyph-name="F" unicode="F" horiz-adv-x="365" 
d="M261 347q43 11 111 26q13 3 23 3q12 0 25 -8q18 -11 22.5 -16.5t4.5 -18.5q0 -11 -10 -14q-166 -40 -206 -52q-12 -4 -17 -15q-10 -21 -22 -65.5t-19 -62.5q-1 -4 -3 -7.5t-3 -6t-2 -6.5q-12 -40 -12 -76q0 -3 0.5 -9.5t0.5 -8.5q0 -17 -21 -17q-36 0 -59 18q-6 5 -6 13
q0 15 6 45q7 38 39 142q4 13 4 20t-9 7q-27 0 -27 30q0 1 -2 7.5t-2 9.5q0 4 6 6q18 8 32.5 11.5t20.5 5.5t9 10q40 98 64 163q5 13 5 14q0 2 -2 2q-1 0 -10 -5q-30 -17 -42 -23q-6 -3 -18 -3q-17 0 -27 14q-8 12 -8 20q0 6 2 11.5t6 12t5 9.5q3 7 8 8q11 2 39 13
q24 10 87 39q26 12 32 14q4 1 32.5 10.5t55.5 16.5q62 17 104 17q30 0 48 -6.5t30 -30.5q2 -4 2 -16q0 -18 -4 -20q-24 -12 -44 -12q-14 0 -17 7q-8 14 -20 14q-5 0 -23 -5t-23 -6q-19 -2 -48 -12q-5 -2 -15 -5t-18 -5.5t-15 -4.5q-9 -2 -9 -16q0 -10 -3 -16
q-51 -104 -65 -145q-8 -24 -8 -26t2 -2q1 0 13 3z" />
    <glyph glyph-name="G" unicode="G" horiz-adv-x="485" 
d="M402 255q2 4 2 6q0 3 -3 3q-2 0 -10 -3q-48 -18 -55 -18q-31 0 -40 9q-18 18 -18 31q0 26 19 28q26 3 28 4q13 3 58 20q29 11 60 11q14 0 32 -21q17 -19 17 -35q0 -13 -16 -48q-58 -129 -72 -261q-1 -8 -4.5 -12t-15.5 -11q-11 -6 -24 -6q-8 0 -15 4t-13 4q-13 0 -13 9
q0 19 13 74q5 22 5 26q0 2 -2 2q-1 0 -13 -13q-33 -35 -57 -55q-22 -18 -56.5 -30t-55.5 -12q-52 0 -79 39q-30 42 -30 76q0 71 42 192.5t139 242.5q38 48 92.5 94t92.5 56q12 3 36 3t54.5 -13.5t38.5 -23.5q19 -22 19 -49q0 -16 -3.5 -36t-7.5 -33.5t-9 -28t-5 -15.5
q-4 -14 -18 -28t-29 -14q-8 0 -12.5 2t-7.5 5t-4 3q-17 4 -21 14q-7 16 -7 17q0 9 9.5 21.5t12.5 21.5q3 11 13 26q10 14 10 42q0 11 -5 18t-9 7q-39 0 -85 -46q-28 -28 -54 -60q-3 -3 -11 -12t-12 -13q-56 -63 -100.5 -150.5t-66.5 -174.5q-9 -35 -9 -66q0 -17 4.5 -28
t4.5 -12q1 -5 6.5 -9t11.5 -4q5 0 15.5 4t31.5 18.5t43 37.5q36 36 64.5 63.5t40.5 38.5t18 18q24 27 35 50z" />
    <glyph glyph-name="H" unicode="H" horiz-adv-x="458" 
d="M451 364q1 0 12 4q35 13 46 13q18 0 29 -5t12 -5q9 -1 16 -10t8 -15q0 -1 1.5 -4t2.5 -7t1 -12q0 -11 -2.5 -13.5t-11.5 -2.5q-28 0 -67 -9q-13 -3 -37 -10t-31 -8q-10 -2 -14 -9q-8 -14 -14 -30.5t-13.5 -42t-10.5 -34.5q-18 -55 -43 -202q-3 -15 -27 -15q-18 0 -40 9
q-6 3 -10 17.5t-4 21.5q0 23 5 39q9 27 25 91.5t25 92.5q6 18 6 25q0 5 -3 5t-12 -2q-84 -19 -92 -22q-8 -2 -10 -5t-8 -18q-9 -23 -19.5 -67t-12.5 -48q-6 -12 -6 -38q0 -6 1 -17t1 -14q0 -16 -6 -24q-4 -6 -21 -6q-22 0 -29 7q-3 3 -11.5 8t-10.5 8q-7 9 -9 10q-6 3 -6 10
q0 17 6 37q3 14 4 17q2 10 7 33.5t9.5 43t4.5 22.5q0 4 -3 4l-5 -1q-5 0 -13 -1t-14 -1q-43 0 -57 24q-5 9 -5 44q0 15 22 15q9 0 20.5 -4t15.5 -4q17 0 62 13q4 1 8 10q8 19 20.5 59.5t19.5 57.5q75 186 119 269q7 14 12 16.5t23 2.5q9 0 20 -6.5t16 -8.5q14 -6 14 -19
q0 -9 -6 -19q-32 -51 -73 -156t-59 -144q-8 -17 -8 -26q0 -4 3 -4q2 0 14 3q56 13 90 25q14 5 18 14q31 69 76 209q7 23 8 26l9 12q7 10 27 10q8 0 16.5 -1.5t11.5 -1.5q15 0 22 -7q6 -6 6 -17q0 -18 -11 -49q-10 -28 -31 -76t-29 -71q-4 -11 -4 -13q0 -3 4 -3z" />
    <glyph glyph-name="I" unicode="I" horiz-adv-x="211" 
d="M99 -26q-6 0 -12.5 -9.5t-14.5 -9.5q-6 0 -10 4.5t-10 5.5q-9 2 -15.5 8.5t-8.5 7.5q-5 1 -5 5q0 6 7.5 35.5t13.5 40.5q4 8 8 23q19 71 42 141.5t54.5 162t46.5 137.5q3 9 14.5 34t23.5 65q4 13 42 13q19 0 35 -9t16 -20q0 -41 -29 -70q-3 -3 -11 -24
q-39 -102 -151 -437q-7 -21 -7 -25v-10q0 -14 -16 -60q-3 -9 -13 -9z" />
    <glyph glyph-name="J" unicode="J" horiz-adv-x="328" 
d="M79 236q28 -5 28 -35q0 -7 -7 -20.5t-11 -28.5q-3 -10 -6.5 -17l-4.5 -9q-5 -15 -5 -53q0 -33 4 -52q6 -29 16 -29q20 0 51 55q28 49 58 136q79 229 146 383q11 25 11 26q0 2 -2 2t-14 -4t-30.5 -10t-21.5 -7q-9 -3 -17 -9q-17 -13 -54 -13q-26 0 -36 3t-12 14
q0 5 -3.5 9.5t-3.5 10.5q0 4 4 20.5t4 19.5q0 7 8 7q32 0 112 22q84 23 127 23q14 0 32 -15q20 -17 20 -30q0 -16 -5.5 -27t-16.5 -26t-18 -30q-99 -219 -160 -411q-26 -81 -54 -129q-57 -98 -115 -98q-17 0 -35 12q-17 12 -26 15q-48 20 -48 133q0 61 14 111q4 15 16 38
q6 12 10 14.5t15 2.5q6 0 30 -4z" />
    <glyph glyph-name="K" unicode="K" horiz-adv-x="434" 
d="M250 389q0 -2 3 -2l2 1l4 2t4 1q9 2 15 6q169 102 265 235q6 8 9 10t12 2q28 0 47 -19q1 -1 5.5 -3t5.5 -4q4 -7 4 -11t-14 -23q-81 -110 -195 -190q-14 -10 -124 -79q-13 -8 -13 -17q0 -12 5 -28q4 -12 6.5 -26t4.5 -21q13 -44 47 -110t69 -115q12 -17 22 -23
q31 -19 31 -42q0 -6 -5 -12t-10 -7q-2 0 -9.5 -4t-19.5 -4q-32 0 -53.5 17.5t-41.5 49.5q-7 12 -26 40t-23 35q-47 87 -71 189q-6 26 -8 26t-15 -31q-50 -119 -72 -219q-2 -9 -12 -19q-11 -10 -27 -10q-11 0 -17.5 9t-8.5 10q-23 9 -23 22q0 11 6 30q87 275 224 552
q7 14 13 18q4 3 9.5 11.5t12.5 11.5q6 3 17 3q10 0 14.5 -2t6.5 -5.5t4 -4.5t11.5 -5t11.5 -7q4 -6 4 -20q0 -3 -16 -30q-44 -74 -85 -171q-6 -14 -6 -17z" />
    <glyph glyph-name="L" unicode="L" horiz-adv-x="368" 
d="M147 49q7 0 23 5q58 18 165 69q4 2 22 2q17 0 28 -7t19 -16q7 -7 7 -15q0 -1 2 -6t2 -12q0 -18 -23 -22q-5 -1 -16 -1q-8 0 -14 -2q-24 -8 -119 -47q-72 -30 -129 -30q-17 0 -25.5 4.5t-20.5 17.5q-11 12 -22 34q-4 8 -4 14q0 9 18 59q2 6 4 19t9 33q20 60 48.5 130
t49 117t57.5 129t53 118q4 9 6.5 12.5t9 5.5t20.5 2q11 0 19 -6.5t11 -7.5q8 -2 15.5 -8.5t7.5 -12.5q0 -11 -8 -29t-8 -21q0 -5 -5 -10q-25 -25 -46 -84q-3 -7 -11 -24t-14 -31q-60 -137 -124 -316q-14 -39 -14 -52q0 -11 7 -11z" />
    <glyph glyph-name="M" unicode="M" horiz-adv-x="531" 
d="M616 599q13 -4 15 -10q8 -17 8 -31q0 -3 -8 -16q-71 -118 -115 -260t-74 -348q-2 -16 -4.5 -19.5t-9.5 -3.5q-6 0 -10.5 3t-9.5 3q-2 0 -5 -1t-4 -1q-19 0 -38 19q-6 6 -6 13q0 5 21.5 110.5t27.5 130.5q6 27 17 63t18.5 59.5t7.5 24.5q0 3 -2 3q-3 0 -23 -26
q-13 -17 -32 -40.5t-29 -36.5t-14 -19q-9 -15 -22 -15q-3 0 -6 0.5t-5.5 1t-10 2.5t-16.5 4q-25 5 -35 24q-11 20 -11 79q0 9 2.5 43t2.5 36q0 3 -2 3t-13 -26q-12 -27 -53 -139q-24 -65 -40 -121.5t-21 -81t-5 -32.5q0 -4 -4.5 -10t-13.5 -7q-8 -1 -12 -5.5t-12 -4.5
q-11 0 -21 8t-14 8q-15 1 -15 37q0 20 16 53.5t20 48.5q32 114 119 309t103 237q6 15 8.5 18t10.5 3q7 0 16.5 -3.5t11.5 -3.5q41 -3 41 -27q0 -4 -5 -22.5t-12 -42.5t-10 -37q-11 -45 -15 -104q0 -2 -1 -23t-3 -55q-2 -28 -2 -46q0 -4 2 -4q1 0 7 7q19 24 109.5 120.5
t125.5 149.5q4 7 6.5 8t11.5 1q14 0 21 -1.5t10 -4t5 -2.5z" />
    <glyph glyph-name="N" unicode="N" horiz-adv-x="486" 
d="M560 640q12 0 21 -14q10 -14 10 -20q0 -15 -10 -34q-3 -6 -16 -43q-11 -32 -67 -206t-102 -293q-8 -21 -19 -32q-14 -14 -21.5 -17.5t-21.5 -3.5q-18 0 -36 11q-31 19 -38 60q-14 88 -21 283q-3 85 -6 85t-18 -47q-71 -219 -90 -342q-5 -32 -5 -36q0 -18 -39 -18
q-12 0 -19.5 1.5t-9.5 3t-5 4t-5 3.5q-10 5 -10 15q0 12 16.5 72.5t35.5 122.5t38 124.5t20 64.5l16 54q10 33 41 153q2 8 9.5 11t7.5 6q0 8 -3.5 22.5t-3.5 27.5q0 14 7 18q18 11 57 11q9 0 12.5 -2.5t5.5 -12.5q20 -97 25.5 -289t12.5 -253q3 -28 6 -28t13 26
q32 81 111 334q4 13 9.5 29t8.5 26q4 16 9.5 52.5t10.5 54.5q5 17 8.5 20t17.5 3q10 0 22 -3.5t15 -3.5z" />
    <glyph glyph-name="O" unicode="O" horiz-adv-x="400" 
d="M326 546q-9 0 -53 -62q-70 -100 -101 -204q-12 -39 -14 -60q-1 -5 -3.5 -21t-4.5 -31.5t-2 -27.5q0 -46 15 -78q8 -17 24 -17q10 0 26.5 11t23.5 24q65 117 100 242q25 89 25 152q0 49 -29 64q-4 2 -4 5t-3 3zM402 600q45 -56 45 -152q0 -45 -13 -94q-56 -215 -128 -316
q-44 -62 -123 -62q-31 0 -55 10t-42 47q-19 41 -19 80q0 191 119 382q57 91 104 124q17 12 29 12q14 0 33.5 -10.5t23.5 -10.5q18 0 26 -10z" />
    <glyph glyph-name="P" unicode="P" horiz-adv-x="400" 
d="M446 596q-3 0 -9 -2q-9 -3 -34.5 -10.5t-38 -12.5t-31.5 -16.5t-33 -27.5q-8 -25 -25 -69.5t-29.5 -80.5t-20.5 -68q17 -21 26 -27q7 -5 9 -5q9 0 36 26q71 68 111 151q47 98 47 137q0 5 -8 5zM147 351q4 1 6 9q2 6 14 40t17 55q0 5 -3 5q-6 0 -11 5q-6 6 -9 10.5t-5 8.5
l-3 6q-4 5 -4 11q0 10 6 18t25 23q79 62 127 89q73 41 146 41q26 0 38.5 -3.5t23.5 -17.5q15 -18 19 -28.5t4 -36.5q0 -27 -10 -61q-8 -26 -37 -84q-58 -117 -153 -202q-9 -8 -31 -19q-23 -11 -59 -11q-29 0 -42 13q-6 6 -9 6q-2 0 -7 -14q-14 -41 -29 -95t-23.5 -90
t-8.5 -41t-6 -11q-9 -9 -28 -9q-15 0 -18 4q-7 9 -14 12q-15 7 -15 18q0 4 4 19q30 114 35 129q5 13 6 21t35 106q5 14 5 20q0 3 -3 6q-14 14 -14 26q0 5 1 7t3 2.5t3 1.5q5 5 24 11z" />
    <glyph glyph-name="Q" unicode="Q" horiz-adv-x="451" 
d="M341 235q2 0 13 18q73 120 82 223q1 11 1 29q0 55 -15 55q-26 -3 -50 -17q-81 -47 -154 -168q-70 -116 -70 -229q0 -96 26 -96q6 0 19 7t36 27.5t47 49.5q5 6 5 11q0 3 -4 15q-32 97 -37.5 116t-5.5 38q0 18 31 18q18 0 28 -5.5t15 -5.5q10 -1 13.5 -4.5t4.5 -14.5
q8 -67 15 -67zM306 41q-26 -26 -57.5 -42.5t-56.5 -16.5q-31 0 -45 4q-9 2 -28 19t-21 19q-34 23 -34 126q0 79 24 148q14 39 16 44q65 135 135 205l34 28q27 23 64.5 36t60.5 13t39 -11q1 -1 23.5 -12t35.5 -25q21 -24 21 -86q0 -67 -18 -118q-38 -109 -115 -224
q-5 -8 -5 -14q20 -59 51.5 -118t58.5 -86q12 -12 12 -15q0 -19 -35 -19q-27 0 -38 4t-23 18q-49 54 -81 122q-5 10 -7 10t-11 -9z" />
    <glyph glyph-name="R" unicode="R" horiz-adv-x="403" 
d="M364 580q-13 0 -38 -10q-14 -6 -20 -17q-45 -81 -87 -209q-3 -9 -3 -12t2 -5q5 -5 12 -5q5 0 14 4t16 5q11 2 27 14q34 25 58 58.5t33 64.5t12.5 49.5t3.5 29.5q0 9 -5 19q-9 14 -25 14zM174 216q-15 -54 -28.5 -120.5t-13.5 -79.5q0 -20 -42 -20q-9 0 -14 2t-8.5 5
t-4.5 4q-17 9 -17 21q0 1 3 17q28 147 105 377q3 10 14 27q3 4 6 13l7 21t6 17t2 7q0 3 -3 4q-7 4 -14 18q-11 22 -11 25q0 9 7 15q85 70 180 70q74 0 93 -25q1 -2 7 -7.5t11 -12.5t9 -18q7 -21 7 -51q0 -103 -74 -192q-15 -18 -38 -33t-37.5 -21.5t-48.5 -19.5
q-3 -1 -5.5 -2t-4.5 -2q-9 -3 -9 -7q0 -6 7 -24q13 -34 31 -70q3 -6 5.5 -11.5t3.5 -8.5t3 -6.5t4 -7.5q24 -40 40 -59q29 -35 56 -40q8 -1 14.5 -19t6.5 -36q0 -15 -33 -15t-74 33q-33 26 -60 69t-40.5 75t-30.5 82q-8 23 -10 23t-7 -17z" />
    <glyph glyph-name="S" unicode="S" horiz-adv-x="352" 
d="M332 574q-5 9 -10 9t-12 -17q-11 -28 -11 -82q0 -47 4 -75q2 -13 12 -76.5t17 -115.5t9 -87q2 -32 2 -58q0 -38 -18 -63t-38 -35q-6 -3 -40 -3q-116 0 -190 132l-7 11q-8 11 -14 21t-11.5 31.5t-5.5 44.5q0 20 2 26t11 18q3 4 15 4q32 0 48 -14q25 -23 25 -36
q0 -8 -4 -17.5t-4 -21.5q0 -8 3 -16q11 -30 37.5 -61t55.5 -47q16 -9 24 -9q6 0 13.5 11t8.5 25q2 26 2 35q0 42 -3 76q-4 45 -18.5 135.5t-18.5 143.5q-3 37 -3 69q0 45 18 88q15 33 49 33q44 0 73 -12t52 -45q5 -7 8 -14.5t5.5 -18t3.5 -16t3 -18.5t2 -16q3 -23 3 -34
q0 -12 -26 -12q-34 0 -54 39q-3 6 -5.5 29t-12.5 39z" />
    <glyph glyph-name="T" unicode="T" horiz-adv-x="318" 
d="M447 562q-49 0 -108 -14q5 -5 5 -11q0 -3 -7 -16q-117 -217 -166 -446q-7 -32 -7 -51q0 -22 -5 -29q-8 -11 -27 -11q-14 0 -28 7q-16 8 -20 12q-8 8 -8 25q0 18 9 52q66 250 150 435q5 11 5 12q0 2 -2 2l-3 -1q-3 0 -8 -0.5t-11 -1t-14 -1t-16 -0.5q-25 0 -39.5 6
t-14.5 13t2 27q2 16 9 25t20 9q2 0 19 -3.5t41 -3.5q44 0 112 16q69 16 121 16q29 0 55 -19t26 -30q0 -27 -13 -32q-2 -1 -6 -4t-10 -4.5t-17 -1.5q-9 0 -15.5 6t-8.5 7q-3 1 -9 5.5t-11 4.5z" />
    <glyph glyph-name="U" unicode="U" horiz-adv-x="488" 
d="M365 217q-117 -154 -174 -211q-8 -8 -17 -12q-14 -6 -29 -6q-29 0 -40 16q-8 12 -22 15l-3 1q-4 1 -5 1.5t-3.5 2t-3.5 3t-2.5 4t-2 6t-0.5 7.5q0 42 1 56q5 77 31 157q22 67 69 188t60 156q4 11 10 23q9 18 15.5 22.5t18.5 4.5q6 0 16.5 -6.5t14.5 -7.5q16 -5 17 -13
q2 -14 2 -22q0 -6 -9 -29q-17 -45 -57 -136.5t-64 -159t-36 -132.5q-8 -42 -8 -55q0 -9 3 -9q4 0 19 17q178 203 300 416q7 11 14.5 28t7.5 18q6 11 21 26q3 3 13 3q3 0 13.5 -1.5t13.5 -1.5q11 0 15 -10l10 -22q4 -8 4 -13q0 -2 -8 -24q-8 -21 -27.5 -58t-29.5 -64
q-72 -198 -84 -395q0 -7 -0.5 -14.5t-0.5 -11.5l-1 -4q0 -12 -20 -12q-6 0 -26 8q-11 4 -27 20q-1 1 -4.5 3t-5.5 5t-2 10q0 4 3 19q0 1 2.5 5.5t3.5 12.5q4 25 9 62.5t9.5 63.5t8.5 45q3 13 3 18q0 3 -2 3t-14 -16z" />
    <glyph glyph-name="V" unicode="V" horiz-adv-x="384" 
d="M166 -15q-2 0 -6.5 -2t-10.5 -2q-14 0 -27 10q-25 19 -25 37q0 4 -4 15t-4 20q0 6 1.5 11t1.5 9q0 8 4 33q10 62 40.5 218.5t38.5 226.5q2 15 4 22q5 17 5 38q0 22 28 22q7 0 16 -1l9 -2q25 0 28 -14q4 -16 4 -27q0 -6 -3 -23q-10 -59 -39.5 -208t-42.5 -230
q-2 -13 -2 -23q0 -6 2 -6q5 0 14 13q23 30 53 89q21 42 63.5 124.5t64.5 126.5q40 78 40 131v14q0 16 27 16q5 0 12 -1t10 -1q14 0 15 -5q1 -2 7 -10q15 -18 15 -27q0 -21 -14.5 -68t-30.5 -76q-29 -50 -75.5 -146t-87.5 -169.5t-80 -118.5q-17 -20 -30 -20q-7 0 -11 2
t-10 2z" />
    <glyph glyph-name="W" unicode="W" horiz-adv-x="555" 
d="M396 108q77 134 133 355q5 22 7 43q1 9 3.5 33t2.5 26q0 18 -5.5 32t-5.5 27q0 26 4 33.5t16 7.5q10 0 16 -0.5t9 -0.5q19 0 28 -5.5t15 -27.5q5 -17 5 -47q0 -80 -28 -190q-58 -229 -162 -393q-10 -16 -20 -26q-8 -8 -30 -8q-8 0 -15 3.5t-15 3.5q-17 1 -26 14
q-2 2 -14 8t-15 16q-12 35 -12 129q0 7 -2 7q-1 0 -5 -6q-5 -9 -21 -26q-5 -5 -61 -79q-17 -24 -30.5 -35t-32.5 -11q-13 0 -19 6l-17 17q-6 6 -15 8q-12 3 -12 18q0 19 1 27q1 9 15 87q1 4 4 23.5t5 28.5q21 83 68.5 241t52.5 177q3 11 9 14.5t24 3.5q3 0 33 -7
q3 -1 10.5 -12t7.5 -13q0 -4 -3 -12q-74 -186 -138 -463q-3 -13 -3 -17q0 -3 2 -3t23 27q83 110 123 201q11 25 15 47q4 19 17 50q4 9 14 9q7 0 12 -0.5t7.5 -1.5t5.5 -2l6 -2q7 -1 14 -12q11 -17 11 -37q0 -13 -3 -22q-38 -112 -38 -235q0 -65 5 -65q3 0 24 36z" />
    <glyph glyph-name="X" unicode="X" horiz-adv-x="394" 
d="M186 188q-74 -89 -101 -154q-14 -32 -15 -44q-1 -8 -13 -13q-3 -1 -9.5 -7.5t-15.5 -6.5q-31 0 -53 28q-3 6 -3 10q0 14 6 29t16 32.5t13 25.5q2 5 13 24q21 37 48 71t62.5 72.5t52.5 60.5q13 16 13 22q0 10 -2 32q-6 84 -6 137q0 38 3 83q1 7 4 15.5t3 11.5
q0 6 -0.5 12.5t-0.5 8.5q0 22 35 22q37 0 40 -10q2 -6 8.5 -18t6.5 -19q0 -3 -2 -9.5t-5 -23t-5 -43.5q-1 -14 -1 -53q0 -71 4 -71q3 0 12 10q14 15 97.5 100t113.5 127q6 8 9 9.5t13 1.5q12 0 18.5 -2t14.5 -6.5t15 -7.5q6 -2 12 -11.5t6 -15.5t-5 -13q-16 -24 -54.5 -56.5
t-59.5 -54.5q-6 -7 -18 -20.5t-18 -19.5q-15 -15 -68 -66t-73 -73q-10 -11 -10 -20q0 -21 3 -50q4 -39 14.5 -109t13.5 -98q1 -11 9 -27t8 -25q0 -17 -7.5 -23t-25.5 -6t-28 4q-14 6 -23 10q-6 3 -10 15t-7.5 25t-5.5 29t-3.5 26t-3 30t-2 27t-1.5 30t-1 27q-2 37 -5 37
q-2 0 -26 -29z" />
    <glyph glyph-name="Y" unicode="Y" horiz-adv-x="410" 
d="M188 239q8 0 16 6q60 45 97 87q44 51 99 165q49 100 57 110t19 10q39 0 54 -22q6 -9 6 -30q0 -3 -13 -24q-176 -283 -276 -851q-1 -7 -3 -14l-3 -10.5t-1 -4.5q0 -5 -0.5 -6.5t-3.5 -2.5t-9 -1q-4 0 -8 0.5t-6 1t-5.5 1.5t-7.5 2q-15 2 -25.5 10t-11.5 17t-1 23
q0 28 20 101q3 11 19 83q29 130 88 322q-42 -44 -100 -44q-14 0 -29 11q-16 11 -31 29q-27 32 -27 54q0 40 10 110q1 4 3.5 15t3.5 22q1 7 4.5 20t5.5 24q23 115 53 214q2 7 4 8.5t10 1.5q17 0 38 -5l20 -5q2 0 5 -7.5t3 -14.5q0 -14 -3 -24t-9 -24t-10 -32
q-46 -191 -56 -287q-3 -27 -3 -31q0 -8 7 -8z" />
    <glyph glyph-name="Z" unicode="Z" horiz-adv-x="456" 
d="M430 20q-2 0 -2.5 -1t-3.5 -4t-9 -6q-118 -58 -219 -58q-96 0 -165 55q-5 4 -16.5 30.5t-11.5 39.5q0 16 4 26q17 43 100 118q21 19 21 23t-7 5q-25 4 -32 16q-6 11 -6 20q0 6 2.5 15.5t2.5 10.5q0 10 7 17q6 6 22 6q14 0 25 -5q31 -13 41 -13q7 0 26 4t26 9
q172 124 232 220q6 10 6 12q0 16 -31 22.5t-57 6.5q-76 0 -104 -57q-3 -7 -27 -7q-18 0 -30 7q-21 12 -21 60q0 10 4 13q69 52 171 52q93 0 151 -45q9 -7 24 -26.5t15 -30.5q0 -16 -5 -33q-5 -16 -39 -57q-27 -34 -86 -93q-6 -6 -6 -9t5 -3q61 0 79 -35q2 -4 2 -17
q0 -12 -7 -19q-2 -2 -14 -2q-7 0 -15.5 0.5t-26.5 0.5q-46 0 -84 -12q-61 -18 -89 -23q-19 -19 -61 -52.5t-71.5 -64t-45.5 -66.5q-6 -13 -6 -18q0 -4 14 -14t24 -10t22 -4t20 -4q36 0 97 23.5t90 38.5q16 8 31 8q32 0 36 -11q2 -6 8 -16.5t10 -19t4 -15.5q0 -10 -10 -10
q-3 0 -7.5 1t-6.5 1z" />
    <glyph glyph-name="bracketleft" unicode="[" horiz-adv-x="269" 
d="M403 809h30q72 0 72 -15q0 -2 2.5 -6.5t2.5 -8.5q0 -11 -5 -22q-7 -16 -12.5 -21.5t-16.5 -5.5q-14 0 -26 0.5t-21 0.5h-9q-28 0 -36.5 -5t-18.5 -29q-42 -103 -135.5 -390.5t-114.5 -349.5q-16 -46 -16 -63q0 -14 30 -14q18 0 37 2.5t30 2.5q14 0 21 -12q3 -5 3 -15
q0 -12 -3.5 -22t-7 -14.5t-8 -9.5t-5.5 -6q-3 -5 -33 -5h-34q-50 0 -81 4q-17 2 -31 24.5t-14 43.5q0 22 23 91l223 669q51 152 83 166q22 10 71 10z" />
    <glyph glyph-name="backslash" unicode="\" horiz-adv-x="307" 
d="M264 -67q-2 0 -11 -5.5t-19 -5.5q-17 0 -23.5 4t-10.5 17q-6 22 -6 31q0 11 1 25.5t1 21.5q0 11 -1 28l-21 439q0 11 -1 30.5t-2 34t-1 17.5q0 35 2 61q2 35 6 43q8 15 12.5 18.5t18.5 3.5q2 0 23 -3q28 -3 28 -42q0 -5 -6.5 -30.5t-6.5 -69.5q0 -47 13 -264.5t13 -291.5
q0 -62 -9 -62z" />
    <glyph glyph-name="bracketright" unicode="]" horiz-adv-x="269" 
d="M-12 -199h-30q-74 0 -74 15q0 5 -2 8.5t-2 10.5q0 5 5 17q5 13 13 23q4 5 27 5q7 0 17 -0.5t20 -0.5h9q27 0 36.5 6t18.5 28q43 103 135.5 390t114.5 350q15 43 15 65q0 12 -36 12q-18 0 -33 -2.5t-28 -2.5q-15 0 -20 12q-4 10 -4 15q0 34 26 52q8 5 58 5q55 0 88 -2
q14 -1 30 -27.5t16 -45.5t-23 -88l-223 -669q-23 -70 -40.5 -107t-24.5 -44.5t-19 -14.5q-18 -10 -70 -10z" />
    <glyph glyph-name="asciicircum" unicode="^" horiz-adv-x="448" 
d="M386 589q-2 6 -4 6q-4 0 -14 -7q-114 -80 -127 -96q-3 -4 -16 -4q-18 0 -30 19q-4 7 -4 12q0 30 8 46q2 4 44 29l144 85q12 7 21 7q22 0 28 -15q0 -1 4 -5t7 -13l57 -188q5 -16 5 -26q0 -5 -1.5 -7t-4.5 -4.5t-6 -7.5q-7 -12 -27 -12q-19 0 -27 21z" />
    <glyph glyph-name="underscore" unicode="_" horiz-adv-x="509" 
d="M-100 -96h560v-64h-560v64z" />
    <glyph glyph-name="grave" unicode="`" 
d="M327 844q5 0 11 -9q6 -7 31 -30l77 -69q18 -16 18 -24q0 -1 -7 -31q-3 -14 -21 -14q-19 0 -31 9l-77 67q-14 11 -51 33q-7 4 -7 17q0 27 11 41q11 13 27 13q8 0 13 -1.5t6 -1.5z" />
    <glyph glyph-name="a" unicode="a" horiz-adv-x="382" 
d="M262 130q-3 0 -49 -50q-49 -54 -90 -71q-21 -9 -31 -9q-12 0 -24 9q-14 11 -36 37q-15 19 -15 46q0 68 58 161q56 90 125 149q32 28 80 55t80 27q35 0 55 -29q6 -9 9 -20q2 -6 7 -12.5t9 -6.5q25 0 25 -20q0 -6 -3 -10q-84 -126 -108 -212q-18 -63 -18 -100q0 -31 10 -56
q4 -10 4 -13q0 -11 -17 -15q-20 -4 -23 -4q-37 0 -43 21q-8 28 -8 63q0 14 1.5 27.5t2.5 21.5l1 8q0 3 -2 3zM366 419q-8 0 -30 -14q-114 -75 -180 -167q-69 -95 -69 -142q0 -20 6 -20q5 0 13 5q13 9 26 23q22 24 74.5 75t83.5 89t53 81q11 22 26 37q5 5 5 16q0 17 -8 17z
" />
    <glyph glyph-name="b" unicode="b" horiz-adv-x="317" 
d="M123 74q9 0 21 18q36 53 54.5 94.5t37.5 106.5q7 25 7 32q0 42 -10 55q-4 5 -4 14q0 13 11 31.5t28 18.5q19 0 32 -25q19 -35 30 -35q34 0 114 27q24 8 31 8q8 0 12 -1.5t6 -1.5q23 0 23 -27q0 -16 -8 -17q-26 -4 -84 -30q-50 -22 -84 -22q-2 0 -10 0.5t-9 0.5
q-5 0 -5 -5v-15q0 -5 -8 -43q-4 -19 -11 -36.5t-17 -38.5t-14 -32q-11 -29 -26 -51q-12 -19 -22 -32t-14.5 -18.5t-8.5 -9.5l-5 -5q-30 -35 -69 -35q-20 0 -30 5q-42 21 -46 52q-2 16 -2 35q0 57 24 125q28 79 31 87q13 32 26.5 62.5t31 66t27 56t32 63.5t29 55.5t35 65
t32.5 60.5q12 23 24 33t34 10q17 0 31 -8q13 -7 13 -26t-20.5 -41.5t-25.5 -31.5q-15 -25 -49 -82.5t-56 -97.5t-35 -70q-9 -22 -29 -66t-36 -82t-26 -73q-18 -61 -18 -112q0 -12 5 -12z" />
    <glyph glyph-name="c" unicode="c" horiz-adv-x="285" 
d="M111 62q33 0 103 62q18 16 56 45q30 23 54 23q15 0 26 -13q7 -9 7 -14q0 -2 -1.5 -5t-1.5 -5q0 -8 -8 -11q-23 -10 -87 -71q-45 -42 -75 -61t-62 -19q-34 0 -57.5 17.5t-28.5 32.5q-7 21 -7 40q0 11 2.5 23t8 31t8.5 32q6 26 20 54q101 204 177 247q9 5 20 5q58 0 89 -43
q3 -4 3 -8q0 -2 -0.5 -5.5t-0.5 -6.5q0 -4 0.5 -6t0.5 -3q0 -3 -2 -9l-15 -32q-14 -33 -16 -52q-2 -15 -6 -18q-6 -5 -21 -5q-16 0 -23 7l-20 19q-7 7 -7 20q0 11 11.5 33t11.5 26q0 3 -3 3q-2 0 -12 -12q-49 -59 -97 -149q-20 -37 -38.5 -85.5t-18.5 -71.5q0 -15 10 -15z
" />
    <glyph glyph-name="d" unicode="d" horiz-adv-x="405" 
d="M86 80q5 0 32 27q87 87 176 225q3 5 9 12.5t8 12t2 11.5q0 9 -7 9q-11 0 -41 -23q-54 -42 -100.5 -105t-72.5 -130q-8 -21 -8 -34q0 -5 2 -5zM280 185q-98 -130 -168 -179q-10 -7 -33 -7q-20 0 -40 13t-22 18q-9 22 -9 50q0 44 34 113q65 131 184 225q25 20 67 20
q26 0 48 -17q5 -4 8 -4t13 14q45 59 105 172.5t93 162.5q6 10 10 12t18 2q10 0 29 -12q14 -9 14 -21q0 -27 -20 -57q-2 -3 -9.5 -19.5t-11.5 -23.5q-12 -21 -40.5 -68.5t-44.5 -76t-36 -68.5t-32 -72l-15 -42q-80 -225 -80 -290q0 -17 2 -30l1 -13q0 -3 -4 -7
q-10 -12 -12 -15q-5 -6 -21 -6q-20 0 -28 5q-12 8 -13 18q-1 12 -1 32q0 70 30 170q6 20 6 23q0 2 -2 2t-20 -24z" />
    <glyph glyph-name="e" unicode="e" horiz-adv-x="301" 
d="M153 264q-17 -38 -17 -44q0 -2 2 -2q1 0 25 25q40 42 92 113q7 9 13.5 23.5t8.5 17.5q17 28 17 42q0 6 -4 6q-6 0 -18 -12q-31 -31 -66 -79.5t-53 -89.5zM154 56q8 0 55 28q32 19 78 66t67 62q9 7 26 7q21 0 21 -17q0 -4 -1 -9t-1 -7q0 -9 -5 -14q-8 -8 -33 -39.5
t-61 -64t-94 -71.5q-15 -10 -37 -10q-25 0 -38 7q-42 22 -50 29q-39 33 -39 132q0 21 7 46q36 126 155 270q38 46 97 46q29 0 55 -11q22 -10 22 -50q0 -38 -23 -84q-13 -27 -29 -47q-64 -84 -105 -129.5t-87 -77.5q-13 -9 -13 -18q0 -25 16 -36q11 -8 17 -8z" />
    <glyph glyph-name="f" unicode="f" horiz-adv-x="222" 
d="M230 367q11 0 53 19q33 15 38 17q29 11 59 11q33 0 33 -20q0 -11 -18 -21q-21 -12 -23 -13q-8 -4 -30 -16t-37.5 -19t-30.5 -11q-7 -2 -12 -5.5t-8 -4.5q-5 -2 -16 -5.5t-19.5 -8t-17.5 -12.5q-5 -5 -11 -21q-31 -86 -47 -134t-36 -125t-30 -146q-1 -9 -9 -17.5
t-14 -10.5q-29 -13 -35 -13q-12 0 -18 6q-1 1 -4 3.5t-4 3.5t-2 4t-1.5 8t-0.5 13q0 34 16.5 82.5t22.5 79.5q4 20 43 138t39 125q0 10 -14 28.5t-18 33.5q-5 17 -5 28q0 6 5 14q4 6 15 6q14 0 27 -6.5t17 -6.5q7 0 12 13q93 232 151 335q13 23 50 23q25 0 34 -18
q6 -10 6 -19q0 -12 -14 -32t-15 -27q-2 -12 -5 -18q-8 -18 -47 -75t-49 -94q-2 -6 -6 -16t-6 -14q-22 -55 -22 -59q0 -3 4 -3z" />
    <glyph glyph-name="g" unicode="g" horiz-adv-x="346" 
d="M302 414q-9 0 -30 -19q-7 -7 -17.5 -14t-18.5 -16q-37 -39 -78.5 -98t-56.5 -94q-12 -29 -12 -37q0 -6 3 -6q5 0 28 20q99 86 193 241q3 5 3 7v2q-1 3 -1 5q0 9 -13 9zM282 135q59 52 107 86q14 10 29 10q30 0 30 -22q0 -15 -9 -23q-125 -110 -189 -185t-99 -162
q-66 -161 -79 -189q-14 -29 -26 -36t-43 -7q-49 0 -49 41t64 146q19 32 43 67.5t34 51.5q30 49 77 158q9 21 9 24t-2 3t-25 -21q-32 -30 -66 -30q-21 0 -32 6q-21 11 -44 46q-4 6 -4 26q0 28 13 60q2 5 7.5 16.5t8.5 19.5q17 40 87 130q56 73 113 107q33 20 56 20
q32 0 55.5 -12t32.5 -31q6 -13 6 -25q0 -31 -15 -60q-59 -114 -96 -198q-10 -23 -10 -26q0 -2 2 -2t14 11z" />
    <glyph glyph-name="h" unicode="h" horiz-adv-x="342" 
d="M311 434q14 17 23 22.5t27 5.5q17 0 37 -6q13 -4 13 -20q0 -27 -29 -80q-8 -15 -13 -27.5t-8 -22t-4 -12.5q-40 -95 -52 -176q-4 -25 -4 -60q0 -20 3 -27.5t13 -14.5q3 -2 11 -4.5t9 -2.5q4 -3 4 -7q0 -7 -6 -14q-6 -10 -29 -19q-8 -3 -24 -3q-13 0 -29 7q-39 19 -39 80
q0 39 17 103q13 50 30 93q4 11 4 12q0 2 -2 2t-42 -63q-91 -145 -114 -177q-7 -9 -21 -18q-7 -5 -33 -5q-6 0 -13 3q-26 11 -32 26q-2 5 -2 10q0 6 1 9t4.5 11.5t6.5 20.5q14 53 36 112t40 100t49 108t46 101q4 8 24 49q6 12 50.5 99t65.5 132q9 19 32 19q29 0 38 -8
q15 -12 15 -28q0 -11 -3.5 -21.5t-8 -16.5t-14.5 -20t-16 -23q-3 -4 -9 -13.5t-9 -14.5q-59 -88 -173 -356q-36 -84 -36 -86t2 -2q1 0 9 13q38 67 155 210z" />
    <glyph glyph-name="i" unicode="i" horiz-adv-x="184" 
d="M116 66q15 0 51 32q26 23 46 23q33 0 33 -19q0 -12 -15 -29l-36 -39q-45 -48 -94 -48q-27 0 -45.5 31.5t-18.5 61.5q0 63 19 109q4 10 9.5 27.5t7.5 22.5q10 24 27.5 68t33 81.5t31.5 71.5q13 28 50 28q24 0 32 -8q5 -5 5 -12q0 -24 -9.5 -44.5t-25.5 -44.5t-24 -42
q-26 -61 -57 -142q-27 -73 -27 -110q0 -18 7 -18zM349 665q0 -18 -6 -26l-20 -26q-18 -23 -37 -23q-25 0 -36 8t-11 35q0 39 14.5 55t46.5 16q49 0 49 -39z" />
    <glyph glyph-name="j" unicode="j" horiz-adv-x="198" 
d="M151 207q2 0 16 14q35 35 59 50q21 13 33 13q14 0 18 -4t4 -12q0 -18 -14 -31q-24 -22 -44 -44q-61 -68 -144 -198q-21 -33 -31 -59q-17 -45 -34.5 -93t-38 -106t-33.5 -94q-14 -38 -47 -38q-6 0 -10.5 1.5t-9 4.5t-6.5 4q-18 7 -18 45q0 16 17 57q13 32 66.5 143.5
t73.5 176.5q6 20 29 82q12 32 35.5 94.5t42.5 114t33 97.5q5 17 14 24q9 8 40 8q25 0 30 -10q6 -12 6 -19q0 -2 -10 -24q-27 -60 -69 -168q-10 -26 -10 -27q0 -2 2 -2zM330 669q12 -14 12 -23q0 -16 -13.5 -32t-15.5 -24q-4 -18 -32 -18q-38 0 -49 32q-3 9 -3 22l-1 2v6.5
v12.5q0 5 6 13q22 29 52 29q27 0 44 -20z" />
    <glyph glyph-name="k" unicode="k" horiz-adv-x="309" 
d="M135 180q-24 -69 -33 -114q-6 -28 -9 -36q-13 -29 -21 -29q-3 0 -11 -2t-18 -2q-18 0 -24 6q-9 9 -9 22q0 15 11 49q30 93 67 188.5t96 235t78 186.5l9 22l6 15q5 9 17 9q11 0 34 -5q28 -6 28 -24q0 -30 -29 -74q-2 -3 -22 -39q-18 -31 -32.5 -64t-35 -85.5t-25.5 -65.5
q-8 -19 -8 -22q0 -2 2 -2q3 0 25 18q72 60 110 123q10 17 19 23q13 8 30 8q14 0 19 -2q4 -1 14 -10t10 -15q0 -11 -15 -34t-25 -33q-9 -9 -15 -18q-7 -9 -24 -25q-30 -28 -122 -102q-6 -5 -6 -13q0 -3 1 -8t4 -22.5t7 -37.5q2 -14 16 -58.5t20 -55.5q12 -23 18 -32.5
t16 -18.5t26 -17q6 -3 12 -3q5 0 5 -13q0 -5 -4 -10t-9 -9t-6 -5q-6 -13 -27 -13q-47 0 -68 30q-6 9 -12.5 15.5t-10.5 12.5t-9 20q-22 61 -41 148q-7 34 -10 34t-19 -46z" />
    <glyph glyph-name="l" unicode="l" horiz-adv-x="194" 
d="M102 77q0 -27 10 -27q4 0 13 8q7 7 52 59q13 16 20.5 23.5t20.5 15.5t26 8t23 -6q11 -7 11 -18q0 -5 -2.5 -9t-8 -9.5l-8.5 -8.5q-12 -15 -34 -46.5t-30 -39.5q-41 -45 -88 -45q-19 0 -45 18q-20 14 -30 34q-7 14 -7 44q0 27 8 58q8 28 36 105q45 122 194 402q4 8 11 26
t11 27q6 12 8.5 16.5t10 9.5t19.5 6q27 3 30 3q21 0 28 -13q4 -8 4 -23q0 -23 -19 -56q-20 -34 -60 -101.5t-63.5 -107.5t-52.5 -99t-49 -111l-27 -72q-12 -35 -12 -71z" />
    <glyph glyph-name="m" unicode="m" horiz-adv-x="555" 
d="M376 54q-45 -52 -96 -52q-27 0 -48 12q-30 18 -34 40q-1 6 -3 6t-12 -10q-20 -20 -64 -47q-12 -7 -21 -7q-45 0 -76 31q-6 6 -6 44q0 40 15 85q11 33 42.5 93.5t41.5 83.5q13 30 27.5 56.5t21.5 46.5q12 34 59 34q13 0 21 -3q14 -6 14 -15q0 -26 -12 -45
q-108 -168 -152 -313q-4 -13 -4 -17q0 -3 2 -3q3 0 16 9q59 42 109.5 111t79.5 144q9 22 22 34q15 14 41 14q27 0 43 -20q3 -4 3 -7q0 -5 -4 -16q-10 -26 -38 -69.5t-40 -67.5q-42 -87 -42 -128q0 -7 4 -7t14.5 8.5t19.5 20.5q20 26 61.5 69.5t71 82.5t45.5 84q14 39 49 39
q14 0 21.5 -4.5t8.5 -4.5q14 -2 18.5 -5.5t7.5 -14.5q2 -7 2 -14q0 -11 -13.5 -23t-17.5 -20q-68 -124 -68 -193q0 -49 18 -89q1 -2 9 -11.5t8 -18.5q0 -5 -6 -10q-8 -6 -23 -6q-17 0 -26.5 4.5t-10.5 4.5q-16 2 -35 57q-12 34 -12 71q0 12 -2 12q-3 0 -22 -23z" />
    <glyph glyph-name="n" unicode="n" horiz-adv-x="344" 
d="M210 130q-37 -52 -50 -75q-12 -21 -20 -29q-10 -8 -17 -17q-12 -14 -41 -14q-17 0 -38 20q-28 26 -28 43q0 13 2 25t6 26t5 21q4 25 30 87l20 49q44 107 90 184q12 20 13 21q11 11 37 11q32 0 38 -15q4 -10 4 -16q0 -28 -22 -52q-23 -25 -56 -88q-27 -52 -68 -155
q-14 -35 -14 -45q0 -3 3 -3t29 39q41 60 80 108l58.5 72t26.5 41q12 27 18 34q7 8 21 8q11 0 20.5 -5.5t14.5 -6.5q15 -4 15 -27q0 -9 -9 -25q-43 -78 -67 -147q-3 -10 -9.5 -47t-6.5 -43q0 -10 2 -23t2 -21q0 -6 3.5 -12t7 -9.5t9 -8.5t6.5 -6q10 -10 10 -23q0 -7 -6 -14
q-9 -10 -25 -10q-39 0 -48 14q-3 5 -13 15.5t-16 20.5q-10 18 -10 47q0 24 4 46q2 12 2 13q0 4 -3 4q-1 0 -10 -12z" />
    <glyph glyph-name="o" unicode="o" horiz-adv-x="302" 
d="M123 75q4 0 10 6q3 3 16 24q30 50 45 76t31.5 68t22.5 81q5 31 5 52q0 5 -4 13.5t-5 10.5q-2 8 -4 8t-5 -3l-2.5 -2.5t-3 -2.5t-2.5 -2.5t-2 -2.5l-2 -2l-5 -7q-5 -8 -12 -18.5t-16.5 -25.5t-19.5 -33.5t-19.5 -38.5t-19 -43.5t-15.5 -45.5q-12 -42 -12 -71q0 -12 7 -25
q9 -16 12 -16zM333 335q-4 0 -6 -7q-45 -180 -118 -268q-18 -22 -28 -32q-28 -28 -56 -28q-18 0 -27 6q-47 30 -56 62q-6 21 -6 62q0 34 6 64q13 69 73 169q14 23 20 32q3 4 11 16q17 26 29.5 41.5t33 29.5t41.5 14q34 0 50 -19q8 -9 10 -17q5 -22 12 -37q8 -17 19 -17
t32.5 1.5t33.5 1.5q57 0 57 -27q0 -7 -11.5 -13.5t-13.5 -8.5q-3 -4 -9 -5q-8 -1 -29 -8t-32 -9q-15 -3 -36 -3z" />
    <glyph glyph-name="p" unicode="p" horiz-adv-x="360" 
d="M190 218q-8 -14 -8 -30q0 -35 19 -84q7 -18 10 -18q4 0 18 24q29 51 51 118q17 51 33 112q8 32 8 35t-2 3t-19 -16q-59 -56 -110 -144zM111 68q-64 -144 -106 -304q-2 -7 -2 -16.5t-2 -15t-8 -9.5q-13 -7 -36 -7t-32 16q-1 2 -4 5t-4.5 6.5t-1.5 8.5q0 8 5 24
q21 67 71.5 203.5t92 261t60.5 219.5q4 18 11 20q2 1 8 4.5t13.5 5.5t18.5 2q32 0 32 -21q0 -25 -20 -88q-4 -13 -4 -15t2 -2q1 0 11 12q43 51 75 72q17 11 27 11q22 0 41 -11q7 -4 17.5 -12.5t13.5 -10.5q14 -10 14 -36q0 -34 -10 -74q-1 -3 -2.5 -15t-3.5 -17
q-3 -9 -14 -38t-16 -42.5t-15.5 -39.5t-19 -43t-21 -37.5t-24.5 -36.5q-20 -26 -26.5 -30.5t-23.5 -4.5q-42 0 -64 29q-19 24 -30 56q-2 6 -4 6q-3 0 -19 -36z" />
    <glyph glyph-name="q" unicode="q" horiz-adv-x="317" 
d="M85 106q0 -7 6 -7q8 0 19 10q90 81 133 156q7 12 7 16q0 1 -2 4.5t-2 7.5q0 5 19 30q27 34 31 41q10 16 10 29q0 2 -2 2q-5 0 -11 -4q-3 -2 -9.5 -4.5t-13.5 -7.5q-47 -35 -93 -88.5t-68 -102.5q-24 -52 -24 -82zM129 39q0 2 -2 2l-4 -1q-4 -1 -12 -2t-19 -1q-20 0 -28 3
q-9 4 -16 9l-11 9q-22 19 -22 66q0 24 9 47q39 98 108.5 178.5t143.5 108.5q23 9 44 9q30 0 49.5 -13.5t19.5 -38.5q0 -20 -15 -45t-15 -32q0 -5 3.5 -11t3.5 -10q0 -2 -6 -11q-159 -240 -264 -597q-1 -3 -5 -37t-16 -52q-8 -13 -23 -13q-18 0 -33 8q-11 6 -17 14q-3 4 -3 7
t2 12q21 93 67 220q3 9 13 43q9 32 22.5 61.5t17.5 41.5q8 23 8 25z" />
    <glyph glyph-name="r" unicode="r" horiz-adv-x="248" 
d="M318 339q-3 0 -18 -9q-164 -102 -211 -288q-5 -20 -18 -36q-10 -13 -28 -13t-27 18q-1 1 -5.5 9.5t-6.5 15.5t-2 16q0 17 22 52t28 54q55 160 69 221q4 17 4 25q0 6 -2.5 12t-2.5 11q0 6 10 14t30 8q18 0 24 -3q8 -4 10 -9q9 -22 9 -48q0 -16 -5 -33q-3 -9 -3 -10
q0 -2 2 -2q1 0 5 4q11 11 40 32.5t51 31.5q17 8 29 8q48 0 65 -28q4 -7 4 -18q0 -19 -13 -32q-12 -12 -28 -12q-9 0 -20 4.5t-12 4.5z" />
    <glyph glyph-name="s" unicode="s" horiz-adv-x="245" 
d="M118 45q2 0 2 5q0 11 -2 27q-11 99 -11 232q0 19 10.5 57.5t27.5 68.5q37 65 85 65q59 0 82 -37q11 -17 11 -57q0 -48 -29 -91q-6 -9 -8.5 -10.5t-11.5 -1.5q-21 0 -35 13q-10 10 -10 30q0 4 4 12q16 32 16 48q0 12 -3.5 22t-6.5 10t-12 -14q-31 -45 -38 -84
q-3 -16 -3 -31q0 -59 3 -111q8 -132 8 -155q0 -26 -8 -37q-13 -16 -27 -27q-12 -9 -33 -9t-29 4q-64 32 -107 133q-4 9 -4 15q0 13 10.5 25.5t29.5 12.5q18 0 25 -2.5t12 -12.5q6 -10 19 -44t26 -51q4 -5 7 -5z" />
    <glyph glyph-name="t" unicode="t" horiz-adv-x="218" 
d="M225 364q0 -3 4 -3q5 0 28 8q48 17 83 42q8 6 18 6q14 0 29.5 -8.5t15.5 -19.5q0 -22 -30 -37q-10 -5 -19 -11t-18 -10q-18 -8 -44.5 -17.5t-52.5 -17.5t-29 -9q-8 -3 -16 -16q-5 -7 -18 -48q-1 -3 -4 -10.5t-5 -13.5t-2 -8q-3 -13 -23 -77t-25 -91q-5 -29 -22 -41
q-4 -3 -20 -3q-26 0 -37 11q-7 7 -7 23t5 30q11 31 33.5 108t39.5 120q5 13 5 18q0 4 -5 7q-15 10 -28 33t-15 25q-6 7 -6 15q0 6 7 11q13 8 28 8q12 0 21 -3q3 -1 9.5 -4t11.5 -5t7 -2q6 0 8 11q5 19 16 47q7 19 35.5 94t46.5 117q6 14 15 14q4 0 11 3t14 3q14 0 30 -5.5
t16 -11.5q0 -12 -12 -50q-9 -28 -21.5 -56.5t-31.5 -66t-26 -51.5q-5 -10 -12.5 -32.5t-7.5 -25.5z" />
    <glyph glyph-name="u" unicode="u" horiz-adv-x="344" 
d="M215 72q-12 -18 -38.5 -44.5t-47.5 -39.5q-8 -5 -19 -5q-28 0 -55 19q-21 16 -22 31q-1 8 -1 35q0 41 26 122q4 14 9 32.5t9 30.5q6 18 18 56.5t23.5 70.5t27.5 61q14 26 43 26q15 0 25 -5.5t11 -10.5q0 -2 3.5 -11t3.5 -15q0 -13 -18 -28q-18 -16 -27 -48
q-9 -33 -39.5 -125.5t-38.5 -133.5q-3 -16 -3 -23q0 -10 4 -10q2 0 8 6q13 13 20.5 22t14 18.5t12.5 17.5q93 115 133 223q6 15 17 23q8 6 27 6q8 0 12 -2t8 -5t7 -4q14 -6 14 -15q0 -16 -7 -32q-53 -119 -73 -225q-10 -54 -10 -78q0 -12 5 -30t5 -28q0 -16 -6 -22
q-4 -4 -20 -4q-21 0 -37 15q-5 4 -9.5 6t-6.5 4t-3 9q-5 25 -5 44q0 13 3.5 40t3.5 29t-2 2q-1 0 -5 -5z" />
    <glyph glyph-name="v" unicode="v" horiz-adv-x="310" 
d="M332 315q-3 0 -5 -2q-4 -4 -12 -32q-34 -119 -121 -243q-8 -11 -19.5 -23.5t-15.5 -17.5q-13 -16 -37 -16q-14 0 -20 2.5t-12.5 10.5t-11.5 12q-29 24 -29 47q0 41 11 79q1 5 5.5 24.5t13.5 51.5q48 184 58 241q1 8 10 17q6 6 19 6q9 0 15.5 -1.5t8.5 -1.5q15 0 24 -9
q3 -3 3 -9q0 -25 -5 -43.5t-13.5 -40t-13.5 -39.5q-40 -160 -59 -240q-4 -17 -4 -19q0 -3 2 -3t9 9q53 72 96 183q4 10 8 23t7 20q10 27 10 56q0 15 -7 23q-10 12 -10 29q0 25 35 25q22 0 32 -6t16 -22q4 -11 12.5 -21t15.5 -10q14 0 44 15q34 18 61 18q24 0 44 -15
q9 -7 9 -22q0 -3 -7 -8q-27 -18 -66 -31t-41 -14q-13 -7 -28 -7q-11 0 -20 2t-12 2z" />
    <glyph glyph-name="w" unicode="w" horiz-adv-x="440" 
d="M438 318q-4 0 -4 -9q0 -11 -3 -40q-16 -160 -112 -270q-15 -17 -44 -17q-35 0 -74 29q-19 14 -19 40q0 5 1 12.5t2 13t1 6.5q0 2 -2 2q-1 0 -9 -11q-16 -23 -25 -33q-20 -24 -50 -24q-14 0 -21 5q-3 2 -10 6t-11 6.5t-9 6t-8 6.5t-4 6q-4 10 -4 27q0 10 5 29
q12 47 55 168.5t55 186.5q4 22 42 22q2 0 11 -0.5t11 -0.5q10 0 16 -3q12 -6 12 -21q0 -7 -7 -20q-3 -6 -13 -30q-18 -44 -36.5 -97.5t-34 -101.5t-18.5 -56q-10 -29 -10 -30q0 -2 2 -2q3 0 21 26q74 108 104 171q17 35 21 47q2 5 3 7t4 4.5t8.5 3.5t14.5 1q6 0 12 -0.5
t7 -0.5q4 0 9.5 -1t13 -8.5t7.5 -20.5q0 -17 -31 -74q-7 -13 -14 -34t-9 -25q-18 -42 -30 -94q-8 -37 -8 -58q0 -16 5 -16q9 0 27 26q23 33 39.5 83.5t21.5 76.5t6 41q0 1 3.5 15.5t3.5 21.5q0 16 -5 42.5t-5 38.5q0 14 10 24q6 6 43 6q14 0 18 -6q9 -12 19 -20
q18 -14 51 -14q10 0 45.5 6.5t61.5 6.5q15 0 20 -5q6 -6 6 -17q0 -16 -8 -22q-12 -11 -33 -16q-20 -5 -38.5 -12.5t-31 -11t-29.5 -3.5q-16 0 -26 1.5t-15 2.5t-7 1z" />
    <glyph glyph-name="x" unicode="x" horiz-adv-x="275" 
d="M113 93q-32 -37 -40 -62q-3 -9 -14 -20t-35 -11q-9 0 -16 7q-20 20 -20 37q0 6 7 15q2 3 124 159q7 9 8 23q3 30 3 60q0 58 -10 88q-4 12 -6 13q-7 4 -7 16q0 30 41 30q17 0 23.5 -3.5t14.5 -14.5q14 -18 17 -46q5 -38 5 -66q0 -7 2 -7t10 8q19 19 115 103
q10 9 14.5 10.5t17.5 1.5q23 0 30 -12q12 -22 12 -31q0 -8 -3 -11q-1 -1 -2 -1.5l-4 -2t-7 -4.5q-82 -57 -168 -148q-18 -19 -19 -39q-3 -48 -3 -91v-43q0 -51 -2 -74q-3 -42 -10 -71q-3 -12 -26 -12q-5 0 -11 0.5t-8 0.5q-8 0 -11 5q-1 2 -8 7q-10 8 -12.5 13.5t-2.5 25.5
q0 23 11 40q3 4 3 12v13q0 13 -0.5 36t-0.5 48q0 9 -2 9q-1 0 -10 -11z" />
    <glyph glyph-name="y" unicode="y" horiz-adv-x="357" 
d="M267 -7q22 0 22 -11q0 -14 -8 -26q-77 -116 -115 -281q-14 -60 -16 -65q-14 -36 -41 -41q-1 0 -12 -3.5t-18 -3.5q-35 0 -35 32q0 36 21 87q41 98 80 171q4 25 62 200q13 40 13 41q0 2 -2 2q-1 0 -4 -3q-9 -8 -41 -36q-22 -18 -29 -22t-17 -4q-55 0 -80 42q-5 8 -5 13
q0 35 14 99q11 50 47.5 146t46.5 128q9 30 40 30q4 0 12 -3t13 -3q9 0 14 -4t6.5 -7.5t1.5 -6.5q0 -23 -9 -42q-12 -24 -16 -28q-6 -6 -9 -13q-15 -34 -26 -66t-23.5 -71.5t-21.5 -66.5q-14 -40 -14 -67q0 -8 3 -8q2 0 13.5 8t28 24.5t28.5 33.5q3 4 14 17t18 23
q5 7 22.5 28.5t29 37.5t29.5 51.5t35 79.5q5 16 14 25q5 5 17 5q8 0 14 -3.5t14 -3.5q20 0 26 -13q3 -6 3 -19q0 -22 -22 -55q-6 -9 -10.5 -18.5t-6.5 -11.5q-30 -48 -57 -128q-3 -10 -26.5 -73.5t-27.5 -76.5q-3 -10 -8 -25q-4 -12 -4 -13q0 -2 2 -2z" />
    <glyph glyph-name="z" unicode="z" horiz-adv-x="315" 
d="M278 403q-1 0 -5.5 -1.5t-11.5 -3t-14 -2.5q-41 -6 -74 -45q-6 -7 -19 -7t-22 12.5t-9 31.5q0 34 18 39q5 2 64 22q33 11 73 11q29 0 50.5 -7.5t26.5 -16.5q0 -1 8 -10t10 -17t2 -20q0 -13 -7 -25q-6 -11 -52 -52q-8 -7 -8 -11q0 -3 3 -3q47 0 67 -28q5 -7 5 -13
q0 -2 -1 -5t-5.5 -7t-10.5 -4q-62 0 -139 -29q-26 -10 -35 -20q-14 -15 -45.5 -55.5t-38.5 -47.5q-12 -12 -12 -27q0 -7 8 -13q10 -7 17 -7q9 0 22.5 5t27.5 5q15 0 43 19q30 20 56 20q30 0 43 -19q4 -6 4 -16q0 -8 -9 -12q-69 -34 -83 -40q-53 -21 -99 -21q-56 0 -89 27
q-21 17 -21 54q0 21 5 33q8 19 50 72q16 21 16 24q0 4 -10 8q-19 8 -24 21q-8 19 -8 29q0 4 1.5 8t9 9.5t19.5 5.5q15 0 33.5 -7t26.5 -7q22 0 55 35q6 7 14.5 17t13.5 15t12.5 12t16.5 12q9 6 23 22.5t14 25.5q0 4 -6 4z" />
    <glyph glyph-name="braceleft" unicode="{" horiz-adv-x="285" 
d="M209 305q-2 0 -2 -2q0 -1 2 -2q20 -11 20 -50q0 -26 -12 -64l-65 -205q-14 -44 -14 -65q0 -37 33 -37h29q11 0 14 -1.5t7 -8.5q3 -5 3 -12q0 -25 -12 -37q-5 -5 -8 -11q-4 -9 -36 -9q-60 0 -91.5 24t-31.5 67q0 34 12 72l67 206q18 56 18 72q0 23 -22 23q-27 0 -32 2
t-5 12q0 4 -3.5 5.5t-3.5 7.5q0 5 7 26q6 18 13 22.5t28 4.5h10q27 0 44 22.5t39 88.5l66 195q29 88 65.5 122.5t94.5 34.5h17q29 0 39 -3t10 -11q0 -2 3 -7t3 -10q0 -7 -6 -20q-6 -12 -12 -20q-5 -6 -27 -6h-10q-37 0 -56 -18t-34 -59q-23 -63 -77 -232q-23 -75 -52 -101
q-17 -16 -32 -16z" />
    <glyph glyph-name="bar" unicode="|" horiz-adv-x="224" 
d="M373 794q3 -4 7 -9.5t6.5 -9t2.5 -5.5q0 -24 -5 -32q-8 -12 -17.5 -23t-11.5 -17q-43 -104 -147 -423t-125 -380q-18 -51 -25 -67q-8 -17 -12.5 -21t-13.5 -4q-18 0 -26 6t-14.5 9t-9.5 5q-5 4 -5 12q0 19 10 49q2 6 9.5 22t10.5 24l261 781q18 55 31.5 74.5t39.5 19.5
q27 0 34 -11z" />
    <glyph glyph-name="braceright" unicode="}" horiz-adv-x="285" 
d="M189 306q2 0 2 2t-3 3q-19 6 -19 40q0 35 12 74l71 221q14 43 14 61q0 24 -35 24h-33q-25 0 -25 18q0 7 1.5 14t3.5 11.5t5.5 12t5.5 12.5q3 9 59 9h18q34 0 61 -22t27 -65q0 -38 -12 -75l-69 -206q-18 -54 -18 -72q0 -23 22 -23h16q29 0 29 -10q0 -12 -2 -22.5t-4 -15.5
t-6 -12t-4 -8q-5 -12 -43 -12q-46 0 -84 -111l-62 -183q-35 -106 -65 -138t-103 -32h-12q-34 0 -46 3.5t-12 11.5q0 11 3 20t8.5 17.5t6.5 11.5q6 14 33 14h12q36 0 53 14q13 10 27 51l80 243q30 93 70 113q12 6 17 6z" />
    <glyph glyph-name="asciitilde" unicode="~" horiz-adv-x="448" 
d="M348 290q23 0 74 51q5 5 16 5q15 0 24.5 -6.5t9.5 -17.5q0 -4 2.5 -5.5t2.5 -7.5q0 -12 -10 -22q-77 -77 -121 -77q-34 0 -51.5 10.5t-40.5 43.5q-19 26 -25 32t-15 6q-12 0 -51 -36q-13 -12 -38 -12q-27 0 -27 16q0 13 -5 18t-5 11q0 19 9 25q50 36 76 48.5t58 12.5
q24 0 40 -11.5t39 -48.5q21 -35 38 -35z" />
    <glyph glyph-name="uni0080" 
d="M167 207q15 0 69 25q8 4 18.5 8.5t22 10t14.5 6.5q5 2 6 10q36 218 36 247q0 8 -3 8q-2 0 -25 -42q-68 -126 -129 -246q-12 -24 -12 -25q0 -2 3 -2zM389 296h5q5 1 13 1.5t16 0.5q45 0 56 -19q4 -7 4 -8q0 -9 -4 -16q-7 -13 -21.5 -18.5t-44.5 -7.5q-21 -1 -30 -10
q-8 -7 -10 -27l-11 -92q0 -3 -1 -12.5t-1.5 -24.5t-1.5 -26q-1 -18 -1 -35q0 -23 2.5 -40.5t4.5 -25t2 -8.5q0 -8 -17 -25q-4 -4 -17 -4q-35 0 -48 19q-9 13 -9 71q0 40 10 136q4 38 4 46q0 3 -2 3q-3 0 -20 -7q-90 -37 -129 -45q-11 -2 -16 -15q-19 -44 -19 -106
q0 -7 0.5 -12.5t0.5 -6.5q0 -3 -5 -7l-8.5 -8.5t-14.5 -11t-17 -3.5q-12 0 -23 10q-18 15 -18 44q0 26 4 52t8.5 42t4.5 17q0 4 -4 7q-14 10 -19 15.5t-5 14.5t6 29t9 25q3 6 17 6t21.5 -5t8.5 -5q3 0 6 7q113 226 249 449q16 26 20 26q12 0 25 6t34 6q31 0 34 -10
q0 -2 2.5 -7.5t2.5 -7.5q0 -12 -14 -73q-3 -14 -5 -32t-3 -23q-7 -34 -15.5 -94.5t-13.5 -103.5t-5 -46q0 -5 3 -5zM332 839q33 0 38 -14q7 -19 7 -28q0 -12 -3 -20t-9 -17t-9 -15q-7 -17 -37 -17q-14 0 -18.5 0.5t-7 2.5t-5.5 7q-8 17 -8 19q0 17 1 25q2 18 13 40
q8 17 38 17zM539 781q0 -3 3.5 -15t3.5 -18q0 -11 -9 -29q-10 -20 -17.5 -23.5t-30.5 -3.5q-13 0 -18.5 3.5t-9.5 16.5q-1 3 -6.5 14t-5.5 20q0 12 7 29t12 21t17 4q2 0 8.5 -0.5t10.5 -0.5q33 0 35 -18z" />
    <glyph glyph-name="uni0081" 
d="M167 207q15 0 69 25q8 4 18.5 8.5t22 10t14.5 6.5q5 2 6 10q32 194 32 226q0 8 -3 8q-2 0 -25 -42q-21 -40 -62 -110.5t-63 -114.5q-12 -24 -12 -25q0 -2 3 -2zM389 296h5q5 1 13 1.5t16 0.5q45 0 56 -19q4 -7 4 -8q0 -9 -4 -16q-7 -13 -21.5 -18.5t-44.5 -7.5
q-21 -1 -30 -10q-8 -7 -10 -27l-11 -92q0 -3 -1 -12.5t-1.5 -24.5t-1.5 -26q-1 -18 -1 -35q0 -23 2.5 -40.5t4.5 -25t2 -8.5q0 -8 -17 -25q-4 -4 -17 -4q-35 0 -48 19q-9 13 -9 71q0 40 10 136q4 38 4 46q0 3 -2 3q-3 0 -20 -7q-90 -37 -129 -45q-11 -2 -16 -15
q-19 -44 -19 -106q0 -7 0.5 -12.5t0.5 -6.5q0 -3 -5 -7l-8.5 -8.5t-14.5 -11t-17 -3.5q-12 0 -23 10q-18 15 -18 44q0 26 4 52t8.5 42t4.5 17q0 4 -4 7q-14 10 -19 15.5t-5 14.5t6 29t9 25q3 6 17 6t21.5 -5t8.5 -5q3 0 6 7q32 64 231 419q15 26 21 26q14 0 28 6q13 6 39 6
q34 0 37 -10q0 -2 2.5 -7.5t2.5 -7.5q0 -11 -12 -63q-3 -14 -5 -32t-3 -23q-7 -34 -14.5 -89.5t-11.5 -93.5t-4 -41q0 -5 3 -5zM408 724q2 0 5 7l9 18q14 27 14 41q0 13 -4 25q-2 6 -4 6q-1 0 -5 -6q-24 -38 -24 -65q0 -26 9 -26zM470 855q19 -15 24 -25t5 -31
q0 -41 -27 -88q-17 -30 -56 -30q-49 0 -64 19q-19 23 -19 51q0 19 19 58t38 49q14 7 39 7q28 0 41 -10z" />
    <glyph glyph-name="uni0082" horiz-adv-x="386" 
d="M175 -26q0 -2 2 -7q2 -6 2 -20q0 -25 -17 -55q-21 -34 -40 -47.5t-44 -13.5q-30 0 -54 14q-27 16 -38 35q-4 7 -4 16q0 6 6 15t11 12q4 2 11 2q9 0 13 -2l4 -2q14 -3 14 -15q0 -5 8 -13q4 -4 12 -4t20 14q9 10 26 46q6 12 6 26q0 7 -1 9q-2 5 -12 12q-21 14 -37.5 36
t-16.5 37v32q0 13 1 29q3 62 17 100q115 316 273 426q8 6 32 12t42 6q44 0 52 -18q0 -1 17.5 -25.5t17.5 -42.5q0 -12 -9 -34q-35 -86 -35 -88q-5 -18 -33 -18q-21 0 -32 4q-7 2 -15 10.5t-8 19.5q0 16 9 32q2 4 8 13.5t10 17.5t6 17q1 3 6.5 13.5t5.5 20.5q0 9 -3 9
q-4 0 -26 -13q-19 -12 -31 -25q-38 -39 -100 -135q-63 -97 -120 -269q-6 -18 -6 -59q0 -23 8 -34q2 -3 7.5 -10t7.5 -10q6 -9 12 -9q18 0 57 30q45 35 98 96q12 14 17 17q4 3 25 3h10q18 0 23 -4q6 -5 11 -16q4 -9 4 -15q0 -2 -1 -4t-2.5 -3t-4 -3.5l-4.5 -4.5
q-9 -10 -29.5 -34.5t-36 -41.5t-31.5 -31q-59 -52 -116 -53q-5 0 -5 -3z" />
    <glyph glyph-name="uni0083" horiz-adv-x="414" 
d="M175 490q-16 0 -23 4t-12.5 21t-5.5 29q0 5 6 7l15 5q37 13 133 56q36 17 103 34.5t126 17.5q25 0 39 -11q31 -24 31 -46q0 -19 -14 -19q-4 0 -9.5 -3t-15.5 -3q-13 0 -20.5 5t-18.5 5q-75 0 -181 -44q-9 -4 -12 -6.5t-6 -10.5q-4 -10 -41 -106q-10 -26 -10 -27
q0 -2 2 -2q1 0 13 6q16 8 43 17t55 9q38 0 66 -21q9 -6 9 -24q0 -10 -5 -15t-22 -10q-6 -2 -25 -2q-11 0 -16.5 1t-10.5 1q-19 0 -68 -21q-57 -24 -73 -30q-7 -2 -12 -14q-75 -163 -75 -220q0 -11 4.5 -19.5t8.5 -8.5q24 0 56 17q17 9 29.5 15t18.5 8.5t8 3.5q4 2 65 45
q41 28 78 28q11 0 16 -6l9.5 -9.5t9 -10.5t2.5 -9q0 -9 -6 -12q-13 -6 -19 -14q-9 -11 -27 -23q-67 -46 -115 -66q-78 -32 -153 -32q-16 0 -35 11q-25 14 -32 30q-4 8 -4 31q0 7 1 20q2 29 9.5 61.5t15 53.5t21 57.5t19.5 52.5q-8 14 -8 32q0 8 3 13q2 4 23 11q10 3 14 14
q1 2 19 45.5t24 62.5q4 13 4 15t-2 2h-2q-2 -1 -7 -1.5t-13 -0.5zM296 706q7 2 18 12l62 52q24 20 48 48q12 14 32 14q19 0 25 -18q5 -14 5 -28t-8.5 -22.5t-41.5 -33.5l-79 -58q-20 -15 -37 -15q-8 0 -26 15q-9 8 -9 15q0 15 11 19z" />
    <glyph glyph-name="uni0084" horiz-adv-x="486" 
d="M560 640q12 0 21 -14q10 -14 10 -20q0 -15 -10 -34q-3 -6 -16 -43q-11 -32 -67 -206t-102 -293q-8 -21 -19 -32q-14 -14 -21.5 -17.5t-21.5 -3.5q-18 0 -36 11q-31 19 -38 60q-14 88 -21 283q-3 85 -6 85t-18 -47q-71 -219 -90 -342q-5 -32 -5 -36q0 -18 -39 -18
q-12 0 -19.5 1.5t-9.5 3t-5 4t-5 3.5q-10 5 -10 15q0 12 16.5 72.5t35.5 122.5t38 124.5t20 64.5l16 54q10 33 41 153q2 8 9.5 11t7.5 6q0 8 -3.5 22.5t-3.5 27.5q0 14 7 18q18 11 57 11q9 0 12.5 -2.5t5.5 -12.5q20 -97 25.5 -289t12.5 -253q3 -28 6 -28t13 26
q32 81 111 334q4 13 9.5 29t8.5 26q4 16 9.5 52.5t10.5 54.5q5 17 8.5 20t17.5 3q10 0 22 -3.5t15 -3.5zM463 758q5 0 25 8q33 13 44 13q20 0 22 -19q1 -14 1 -22q0 -4 -8 -10q-28 -20 -41 -28q-28 -16 -52 -16q-44 0 -61 46q-9 24 -14 24q-6 0 -21 -11q-13 -9 -26 -9
q-34 0 -34 14q0 8 -1.5 16.5t-1.5 15.5q0 16 7 19l52 23q23 10 43 10q29 0 45 -39q9 -24 12.5 -29.5t8.5 -5.5z" />
    <glyph glyph-name="uni0085" unicode="&#x85;" horiz-adv-x="400" 
d="M326 546q-9 0 -53 -62q-70 -100 -101 -204q-12 -39 -14 -60q-1 -5 -3.5 -21t-4.5 -31.5t-2 -27.5q0 -46 15 -78q8 -17 24 -17q10 0 26.5 11t23.5 24q65 117 100 242q25 89 25 152q0 49 -29 64q-4 2 -4 5t-3 3zM402 600q45 -56 45 -152q0 -45 -13 -94q-56 -215 -128 -316
q-44 -62 -123 -62q-31 0 -55 10t-42 47q-19 41 -19 80q0 191 119 382q57 91 104 124q17 12 29 12q14 0 33.5 -10.5t23.5 -10.5q18 0 26 -10zM312 799q33 0 38 -14q7 -19 7 -28q0 -12 -3 -20t-9 -17t-9 -15q-7 -17 -37 -17q-14 0 -18.5 0.5t-7 2.5t-5.5 7q-8 17 -8 19
q0 17 1 25q2 18 13 40q8 17 38 17zM504 723q0 -3 3.5 -15t3.5 -18q0 -11 -9 -29q-10 -20 -17 -23.5t-31 -3.5q-13 0 -18.5 3.5t-9.5 16.5q-1 3 -6.5 14t-5.5 20q0 12 7 29t12 21t17 4q2 0 8.5 -0.5t10.5 -0.5q33 0 35 -18z" />
    <glyph glyph-name="uni0086" horiz-adv-x="488" 
d="M365 217q-117 -154 -174 -211q-8 -8 -17 -12q-14 -6 -29 -6q-29 0 -40 16q-8 12 -22 15l-3 1q-4 1 -5 1.5t-3.5 2t-3.5 3t-2.5 4t-2 6t-0.5 7.5q0 42 1 56q5 77 31 157q22 67 69 188t60 156q4 11 10 23q9 18 15.5 22.5t18.5 4.5q6 0 16.5 -6.5t14.5 -7.5q16 -5 17 -13
q2 -14 2 -22q0 -6 -9 -29q-17 -45 -57 -136.5t-64 -159t-36 -132.5q-8 -42 -8 -55q0 -9 3 -9q4 0 19 17q178 203 300 416q7 11 14.5 28t7.5 18q6 11 21 26q3 3 13 3q3 0 13.5 -1.5t13.5 -1.5q11 0 15 -10l10 -22q4 -8 4 -13q0 -2 -8 -24q-8 -21 -27.5 -58t-29.5 -64
q-72 -198 -84 -395q0 -7 -0.5 -14.5t-0.5 -11.5l-1 -4q0 -12 -20 -12q-6 0 -26 8q-11 4 -27 20q-1 1 -4.5 3t-5.5 5t-2 10q0 4 3 19q0 1 2.5 5.5t3.5 12.5q4 25 9 62.5t9.5 63.5t8.5 45q3 13 3 18q0 3 -2 3t-14 -16zM404 819q33 0 38 -14q7 -19 7 -28q0 -12 -3 -20t-9 -17
t-9 -15q-7 -17 -37 -17q-14 0 -18.5 0.5t-7 2.5t-5.5 7q-8 17 -8 19q0 17 1 25q2 18 13 40q8 17 38 17zM586 748q0 -3 3.5 -15t3.5 -18q0 -11 -9 -29q-10 -20 -17 -23.5t-31 -3.5q-13 0 -18.5 3.5t-9.5 16.5q-1 3 -6.5 14t-5.5 20q0 11 7 29q7 17 12 21t17 4q2 0 8.5 -0.5
t10.5 -0.5q33 0 35 -18z" />
    <glyph glyph-name="uni0087" horiz-adv-x="382" 
d="M262 130q-3 0 -49 -50q-49 -54 -90 -71q-21 -9 -31 -9q-12 0 -24 9q-14 11 -36 37q-15 19 -15 46q0 68 58 161q56 90 125 149q32 28 80 55t80 27q35 0 55 -29q6 -9 9 -20q2 -6 7 -12.5t9 -6.5q25 0 25 -20q0 -6 -3 -10q-84 -126 -108 -212q-18 -63 -18 -100q0 -31 10 -56
q4 -10 4 -13q0 -11 -17 -15q-20 -4 -23 -4q-37 0 -43 21q-8 28 -8 63q0 14 1.5 27.5t2.5 21.5l1 8q0 3 -2 3zM366 419q-8 0 -30 -14q-114 -75 -180 -167q-69 -95 -69 -142q0 -20 6 -20q5 0 13 5q13 9 26 23q22 24 74.5 75t83.5 89t53 81q11 22 26 37q5 5 5 16q0 17 -8 17z
M375 588q6 0 20 7l74 34q33 16 59 33q9 6 24 6q14 0 23 -9q7 -7 7 -16q0 -27 -7 -38q-9 -12 -59 -31l-92 -35q-14 -5 -28 -5q-13 0 -17.5 3.5t-14.5 18.5q-5 8 -5 13q0 2 1 6t5 8.5t10 4.5z" />
    <glyph glyph-name="uni0088" horiz-adv-x="382" 
d="M262 130q-3 0 -49 -50q-49 -54 -90 -71q-21 -9 -31 -9q-12 0 -24 9q-14 11 -36 37q-15 19 -15 46q0 68 58 161q56 90 125 149q32 28 80 55t80 27q35 0 55 -29q6 -9 9 -20q2 -6 7 -12.5t9 -6.5q25 0 25 -20q0 -6 -3 -10q-84 -126 -108 -212q-18 -63 -18 -100q0 -31 10 -56
q4 -10 4 -13q0 -11 -17 -15q-20 -4 -23 -4q-37 0 -43 21q-8 28 -8 63q0 14 1.5 27.5t2.5 21.5l1 8q0 3 -2 3zM366 419q-8 0 -30 -14q-114 -75 -180 -167q-69 -95 -69 -142q0 -20 6 -20q5 0 13 5q13 9 26 23q22 24 74.5 75t83.5 89t53 81q11 22 26 37q5 5 5 16q0 17 -8 17z
M413 664q5 0 11 -9q6 -7 31 -30l77 -69q18 -16 18 -24q0 -1 -7 -31q-3 -14 -21 -14q-19 0 -31 9l-77 67q-14 11 -51 33q-7 4 -7 17q0 27 11 41q11 13 27 13q8 0 13 -1.5t6 -1.5z" />
    <glyph glyph-name="uni0089" horiz-adv-x="382" 
d="M262 130q-3 0 -49 -50q-49 -54 -90 -71q-21 -9 -31 -9q-12 0 -24 9q-14 11 -36 37q-15 19 -15 46q0 68 58 161q56 90 125 149q32 28 80 55t80 27q35 0 55 -29q6 -9 9 -20q2 -6 7 -12.5t9 -6.5q25 0 25 -20q0 -6 -3 -10q-84 -126 -108 -212q-18 -63 -18 -100q0 -31 10 -56
q4 -10 4 -13q0 -11 -17 -15q-20 -4 -23 -4q-37 0 -43 21q-8 28 -8 63q0 14 1.5 27.5t2.5 21.5l1 8q0 3 -2 3zM366 419q-8 0 -30 -14q-114 -75 -180 -167q-69 -95 -69 -142q0 -20 6 -20q5 0 13 5q13 9 26 23q22 24 74.5 75t83.5 89t53 81q11 22 26 37q5 5 5 16q0 17 -8 17z
M464 589q-4 0 -16 -6q-56 -28 -66 -38q-3 -3 -15 -3q-17 0 -23 10q-6 9 -6 14q0 20 5 33q0 1 7 11q5 8 46 25l73 31q7 3 19 3q19 0 23 -9l3.5 -3.5t4.5 -7.5l41 -103q6 -15 6 -23q0 -5 -1 -8t-2.5 -4.5l-4 -4t-3.5 -4.5q-6 -11 -23 -11q-16 0 -23 14l-38 74q-5 10 -7 10z
" />
    <glyph glyph-name="uni008A" horiz-adv-x="382" 
d="M262 130q-3 0 -49 -50q-49 -54 -90 -71q-21 -9 -31 -9q-12 0 -24 9q-14 11 -36 37q-15 19 -15 46q0 68 58 161q56 90 125 149q32 28 80 55t80 27q35 0 55 -29q6 -9 9 -20q2 -6 7 -12.5t9 -6.5q25 0 25 -20q0 -6 -3 -10q-84 -126 -108 -212q-18 -63 -18 -100q0 -31 10 -56
q4 -10 4 -13q0 -11 -17 -15q-20 -4 -23 -4q-37 0 -43 21q-8 28 -8 63q0 14 1.5 27.5t2.5 21.5l1 8q0 3 -2 3zM366 419q-8 0 -30 -14q-114 -75 -180 -167q-69 -95 -69 -142q0 -20 6 -20q5 0 13 5q13 9 26 23q22 24 74.5 75t83.5 89t53 81q11 22 26 37q5 5 5 16q0 17 -8 17z
M359 671q33 0 38 -14q7 -19 7 -28q0 -12 -3 -20t-9 -17t-9 -15q-7 -17 -37 -17q-14 0 -18.5 0.5t-7 2.5t-5.5 7q-8 17 -8 19q0 17 1 25q2 18 13 40q8 17 38 17zM541 600q0 -3 3.5 -15t3.5 -18q0 -11 -9 -29q-10 -20 -17.5 -23.5t-30.5 -3.5q-13 0 -18.5 3.5t-9.5 16.5
q-1 3 -6.5 14t-5.5 20q0 11 7 29q7 17 12 21t17 4q2 0 8.5 -0.5t10.5 -0.5q33 0 35 -18z" />
    <glyph glyph-name="uni008B" horiz-adv-x="382" 
d="M262 130q-3 0 -49 -50q-49 -54 -90 -71q-21 -9 -31 -9q-12 0 -24 9q-14 11 -36 37q-15 19 -15 46q0 68 58 161q56 90 125 149q32 28 80 55t80 27q35 0 55 -29q6 -9 9 -20q2 -6 7 -12.5t9 -6.5q25 0 25 -20q0 -6 -3 -10q-84 -126 -108 -212q-18 -63 -18 -100q0 -31 10 -56
q4 -10 4 -13q0 -11 -17 -15q-20 -4 -23 -4q-37 0 -43 21q-8 28 -8 63q0 14 1.5 27.5t2.5 21.5l1 8q0 3 -2 3zM366 419q-8 0 -30 -14q-114 -75 -180 -167q-69 -95 -69 -142q0 -20 6 -20q5 0 13 5q13 9 26 23q22 24 74.5 75t83.5 89t53 81q11 22 26 37q5 5 5 16q0 17 -8 17z
M525 590q5 0 25 8q33 13 44 13q20 0 22 -19q1 -14 1 -22q0 -4 -8 -10q-28 -20 -41 -28q-28 -16 -52 -16q-44 0 -61 46q-9 24 -14 24q-6 0 -21 -11q-13 -9 -26 -9q-34 0 -34 14q0 8 -1.5 16.5t-1.5 15.5q0 16 7 19l52 23q23 10 43 10q29 0 45 -39q9 -24 12.5 -29.5t8.5 -5.5z
" />
    <glyph glyph-name="uni008C" horiz-adv-x="382" 
d="M262 130q-3 0 -49 -50q-49 -54 -90 -71q-21 -9 -31 -9q-12 0 -24 9q-14 11 -36 37q-15 19 -15 46q0 68 58 161q56 90 125 149q32 28 80 55t80 27q35 0 55 -29q6 -9 9 -20q2 -6 7 -12.5t9 -6.5q25 0 25 -20q0 -6 -3 -10q-84 -126 -108 -212q-18 -63 -18 -100q0 -31 10 -56
q4 -10 4 -13q0 -11 -17 -15q-20 -4 -23 -4q-37 0 -43 21q-8 28 -8 63q0 14 1.5 27.5t2.5 21.5l1 8q0 3 -2 3zM366 419q-8 0 -30 -14q-114 -75 -180 -167q-69 -95 -69 -142q0 -20 6 -20q5 0 13 5q13 9 26 23q22 24 74.5 75t83.5 89t53 81q11 22 26 37q5 5 5 16q0 17 -8 17z
M484 542q2 0 5 7l9 18q14 27 14 41q0 13 -4 25q-2 6 -4 6q-1 0 -5 -6q-24 -38 -24 -65q0 -26 9 -26zM546 673q19 -15 24 -25t5 -31q0 -41 -27 -88q-17 -30 -56 -30q-49 0 -64 19q-19 23 -19 51q0 19 19 58t38 49q14 7 39 7q28 0 41 -10z" />
    <glyph glyph-name="uni008D" horiz-adv-x="285" 
d="M94 -3q-20 4 -37 19.5t-21 26.5q-7 21 -7 40q0 11 2.5 23t8 31t8.5 32q6 26 20 54q101 204 177 247q9 5 20 5q58 0 89 -43q3 -4 3 -8q0 -2 -0.5 -5.5t-0.5 -6.5q0 -4 0.5 -6t0.5 -3q0 -3 -2 -9l-15 -32q-14 -33 -16 -52q-2 -15 -6 -18q-6 -5 -21 -5q-16 0 -23 7l-20 19
q-7 7 -7 20q0 11 11.5 33t11.5 26q0 3 -3 3q-2 0 -12 -12q-49 -59 -97 -149q-20 -37 -38.5 -85.5t-18.5 -71.5q0 -15 10 -15q33 0 103 62q18 16 56 45q30 23 54 23q15 0 26 -13q7 -9 7 -14q0 -2 -1.5 -5t-1.5 -5q0 -8 -8 -11q-23 -10 -87 -71q-61 -58 -95 -71q-6 -2 -6 -4
t3 -4q10 -6 10 -25q0 -29 -21 -58q-34 -47 -84 -47q-34 0 -58 18q-23 18 -23 33q0 10 11 24q5 6 19 6q13 0 17 -6l4.5 -4.5t6.5 -8.5q6 -10 13 -10q8 0 20 12q8 8 25 38q7 13 7 19q0 9 -14 12z" />
    <glyph glyph-name="uni008E" horiz-adv-x="301" 
d="M153 264q-17 -38 -17 -44q0 -2 2 -2q1 0 25 25q40 42 92 113q7 9 13.5 23.5t8.5 17.5q17 28 17 42q0 6 -4 6q-6 0 -18 -12q-31 -31 -66 -79.5t-53 -89.5zM154 56q8 0 55 28q32 19 78 66t67 62q9 7 26 7q21 0 21 -17q0 -4 -1 -9t-1 -7q0 -9 -5 -14q-8 -8 -33 -39.5
t-61 -64t-94 -71.5q-15 -10 -37 -10q-25 0 -38 7q-42 22 -50 29q-39 33 -39 132q0 21 7 46q36 126 155 270q38 46 97 46q29 0 55 -11q22 -10 22 -50q0 -38 -23 -84q-13 -27 -29 -47q-64 -84 -105 -129.5t-87 -77.5q-13 -9 -13 -18q0 -25 16 -36q11 -8 17 -8zM317 632
q6 0 20 7l74 34q33 16 59 33q9 6 24 6q14 0 23 -9q7 -7 7 -16q0 -27 -7 -38q-9 -12 -59 -31l-92 -35q-14 -5 -28 -5q-13 0 -17.5 3.5t-14.5 18.5q-5 8 -5 13q0 2 1 6t5 8.5t10 4.5z" />
    <glyph glyph-name="uni008F" horiz-adv-x="301" 
d="M153 264q-17 -38 -17 -44q0 -2 2 -2q1 0 25 25q40 42 92 113q7 9 13.5 23.5t8.5 17.5q17 28 17 42q0 6 -4 6q-6 0 -18 -12q-31 -31 -66 -79.5t-53 -89.5zM154 56q8 0 55 28q32 19 78 66t67 62q9 7 26 7q21 0 21 -17q0 -4 -1 -9t-1 -7q0 -9 -5 -14q-8 -8 -33 -39.5
t-61 -64t-94 -71.5q-15 -10 -37 -10q-25 0 -38 7q-42 22 -50 29q-39 33 -39 132q0 21 7 46q36 126 155 270q38 46 97 46q29 0 55 -11q22 -10 22 -50q0 -38 -23 -84q-13 -27 -29 -47q-64 -84 -105 -129.5t-87 -77.5q-13 -9 -13 -18q0 -25 16 -36q11 -8 17 -8zM299 738
q5 0 11 -9q6 -7 31 -30l77 -69q18 -16 18 -24q0 -1 -7 -31q-3 -14 -21 -14q-19 0 -31 9l-77 67q-14 11 -51 33q-7 4 -7 17q0 27 11 41q11 13 27 13q8 0 13 -1.5t6 -1.5z" />
    <glyph glyph-name="uni0090" horiz-adv-x="301" 
d="M153 264q-17 -38 -17 -44q0 -2 2 -2q1 0 25 25q40 42 92 113q7 9 13.5 23.5t8.5 17.5q17 28 17 42q0 6 -4 6q-6 0 -18 -12q-31 -31 -66 -79.5t-53 -89.5zM154 56q8 0 55 28q32 19 78 66t67 62q9 7 26 7q21 0 21 -17q0 -4 -1 -9t-1 -7q0 -9 -5 -14q-8 -8 -33 -39.5
t-61 -64t-94 -71.5q-15 -10 -37 -10q-25 0 -38 7q-42 22 -50 29q-39 33 -39 132q0 21 7 46q36 126 155 270q38 46 97 46q29 0 55 -11q22 -10 22 -50q0 -38 -23 -84q-13 -27 -29 -47q-64 -84 -105 -129.5t-87 -77.5q-13 -9 -13 -18q0 -25 16 -36q11 -8 17 -8zM372 637
q-4 0 -16 -6q-56 -28 -66 -38q-3 -3 -15 -3q-17 0 -23 10q-6 9 -6 14q0 20 5 33q0 1 7 11q5 8 46 25l73 31q7 3 19 3q19 0 23 -9l3.5 -3.5t4.5 -7.5l41 -103q6 -15 6 -23q0 -5 -1 -8t-2.5 -4.5l-4 -4t-3.5 -4.5q-6 -11 -23 -11q-16 0 -23 14l-38 74q-5 10 -7 10z" />
    <glyph glyph-name="uni0091" horiz-adv-x="301" 
d="M153 264q-17 -38 -17 -44q0 -2 2 -2q1 0 25 25q40 42 92 113q7 9 13.5 23.5t8.5 17.5q17 28 17 42q0 6 -4 6q-6 0 -18 -12q-31 -31 -66 -79.5t-53 -89.5zM154 56q8 0 55 28q32 19 78 66t67 62q9 7 26 7q21 0 21 -17q0 -4 -1 -9t-1 -7q0 -9 -5 -14q-8 -8 -33 -39.5
t-61 -64t-94 -71.5q-15 -10 -37 -10q-25 0 -38 7q-42 22 -50 29q-39 33 -39 132q0 21 7 46q36 126 155 270q38 46 97 46q29 0 55 -11q22 -10 22 -50q0 -38 -23 -84q-13 -27 -29 -47q-64 -84 -105 -129.5t-87 -77.5q-13 -9 -13 -18q0 -25 16 -36q11 -8 17 -8zM316 723
q33 0 38 -14q7 -19 7 -28q0 -12 -3 -20t-9 -17t-9 -15q-7 -17 -37 -17q-14 0 -18.5 0.5t-7 2.5t-5.5 7q-8 17 -8 19q0 17 1 25q2 17 13 40q8 17 38 17zM498 652q0 -3 3.5 -15t3.5 -18q0 -11 -9 -29q-10 -20 -17 -23.5t-31 -3.5q-13 0 -18.5 3.5t-9.5 16.5q-1 3 -6.5 14
t-5.5 20q0 11 7 29q7 17 12 21t17 4q2 0 8.5 -0.5t10.5 -0.5q33 0 35 -18z" />
    <glyph glyph-name="uni0092" horiz-adv-x="184" 
d="M116 66q15 0 51 32q26 23 46 23q33 0 33 -19q0 -12 -15 -29l-36 -39q-45 -48 -94 -48q-27 0 -45.5 31.5t-18.5 61.5q0 63 19 109q4 10 9.5 27.5t7.5 22.5q10 24 27.5 68t33 81.5t31.5 71.5q13 28 50 28q24 0 32 -8q5 -5 5 -12q0 -24 -9.5 -44.5t-25.5 -44.5t-24 -42
q-26 -61 -57 -142q-27 -73 -27 -110q0 -18 7 -18zM213 602q6 0 20 7l74 34q33 16 59 33q9 6 24 6q14 0 23 -9q7 -7 7 -16q0 -27 -7 -38q-9 -12 -59 -31l-92 -35q-14 -5 -28 -5q-13 0 -17.5 3.5t-14.5 18.5q-5 8 -5 13q0 2 1 6t5 8.5t10 4.5z" />
    <glyph glyph-name="uni0093" horiz-adv-x="184" 
d="M118 66q15 0 51 32q26 23 46 23q33 0 33 -19q0 -12 -15 -29l-36 -39q-45 -48 -94 -48q-27 0 -45.5 31.5t-18.5 61.5q0 63 19 109q4 10 9.5 27.5t7.5 22.5q10 24 27.5 68t33 81.5t31.5 71.5q13 28 50 28q24 0 32 -8q5 -5 5 -12q0 -24 -9.5 -44.5t-25.5 -44.5t-24 -42
q-26 -61 -57 -142q-27 -73 -27 -110q0 -18 7 -18zM191 694q5 0 11 -9q6 -7 31 -30l77 -69q18 -16 18 -24q0 -1 -7 -31q-3 -14 -21 -14q-19 0 -31 9l-77 67q-14 11 -51 33q-7 4 -7 17q0 27 11 41q11 13 27 13q8 0 13 -1.5t6 -1.5z" />
    <glyph glyph-name="uni0094" horiz-adv-x="184" 
d="M118 66q15 0 51 32q26 23 46 23q33 0 33 -19q0 -12 -15 -29l-36 -39q-45 -48 -94 -48q-27 0 -45.5 31.5t-18.5 61.5q0 63 19 109q4 10 9.5 27.5t7.5 22.5q10 24 27.5 68t33 81.5t31.5 71.5q13 28 50 28q24 0 32 -8q5 -5 5 -12q0 -24 -9.5 -44.5t-25.5 -44.5t-24 -42
q-26 -61 -57 -142q-27 -73 -27 -110q0 -18 7 -18zM258 603q-4 0 -16 -6q-56 -28 -66 -38q-3 -3 -15 -3q-17 0 -23 10q-6 9 -6 14q0 20 5 33q0 1 7 11q5 8 46 25l73 31q7 3 19 3q19 0 23 -9l3.5 -3.5t4.5 -7.5l41 -103q6 -15 6 -23q0 -5 -1 -8t-2.5 -4.5l-4 -4t-3.5 -4.5
q-6 -11 -23 -11q-16 0 -23 14l-38 74q-5 10 -7 10z" />
    <glyph glyph-name="uni0095" horiz-adv-x="184" 
d="M118 66q15 0 51 32q26 23 46 23q33 0 33 -19q0 -12 -15 -29l-36 -39q-45 -48 -94 -48q-27 0 -45.5 31.5t-18.5 61.5q0 63 19 109q4 10 9.5 27.5t7.5 22.5q10 24 27.5 68t33 81.5t31.5 71.5q13 28 50 28q24 0 32 -8q5 -5 5 -12q0 -24 -9.5 -44.5t-25.5 -44.5t-24 -42
q-26 -61 -57 -142q-27 -73 -27 -110q0 -18 7 -18zM190 705q33 0 38 -14q7 -19 7 -28q0 -12 -3 -20t-9 -17t-9 -15q-7 -17 -37 -17q-14 0 -18.5 0.5t-7 2.5t-5.5 7q-8 17 -8 19q0 17 1 25q2 17 13 40q8 17 38 17zM372 634q0 -3 3.5 -15t3.5 -18q0 -11 -9 -29
q-10 -20 -17 -23.5t-31 -3.5q-13 0 -18.5 3.5t-9.5 16.5q-1 3 -6.5 14t-5.5 20q0 11 7 29q7 17 12 21t17 4q2 0 8.5 -0.5t10.5 -0.5q33 0 35 -18z" />
    <glyph glyph-name="uni0096" horiz-adv-x="344" 
d="M210 130q-37 -52 -50 -75q-12 -21 -20 -29q-10 -8 -17 -17q-12 -14 -41 -14q-17 0 -38 20q-28 26 -28 43q0 13 2 25t6 26t5 21q4 25 30 87l20 49q44 107 90 184q12 20 13 21q11 11 37 11q32 0 38 -15q4 -10 4 -16q0 -28 -22 -52q-23 -25 -56 -88q-27 -52 -68 -155
q-14 -35 -14 -45q0 -3 3 -3t29 39q41 60 80 108l58.5 72t26.5 41q12 27 18 34q7 8 21 8q11 0 20.5 -5.5t14.5 -6.5q15 -4 15 -27q0 -9 -9 -25q-43 -78 -67 -147q-3 -10 -9.5 -47t-6.5 -43q0 -10 2 -23t2 -21q0 -6 3.5 -12t7 -9.5t9 -8.5t6.5 -6q10 -10 10 -23q0 -7 -6 -14
q-9 -10 -25 -10q-39 0 -48 14q-3 5 -13 15.5t-16 20.5q-10 18 -10 47q0 24 4 46q2 12 2 13q0 4 -3 4q-1 0 -10 -12zM403 596q5 0 25 8q33 13 44 13q20 0 22 -19q1 -14 1 -22q0 -4 -8 -10q-28 -20 -41 -28q-28 -16 -52 -16q-44 0 -61 46q-9 24 -14 24q-6 0 -21 -11
q-13 -9 -26 -9q-34 0 -34 14q0 8 -1.5 16.5t-1.5 15.5q0 16 7 19l52 23q23 10 43 10q29 0 45 -39q9 -24 12.5 -29.5t8.5 -5.5z" />
    <glyph glyph-name="uni0097" horiz-adv-x="302" 
d="M123 75q4 0 10 6q3 3 16 24q30 50 45 76t31.5 68t22.5 81q5 31 5 52q0 5 -4 13.5t-5 10.5q-2 8 -4 8t-5 -3l-2.5 -2.5t-3 -2.5t-2.5 -2.5t-2 -2.5l-2 -2l-5 -7q-5 -8 -12 -18.5t-16.5 -25.5t-19.5 -33.5t-19.5 -38.5t-19 -43.5t-15.5 -45.5q-12 -42 -12 -71q0 -12 7 -25
q9 -16 12 -16zM333 335q-4 0 -6 -7q-45 -180 -118 -268q-18 -22 -28 -32q-28 -28 -56 -28q-18 0 -27 6q-47 30 -56 62q-6 21 -6 62q0 34 6 64q13 69 73 169q14 23 20 32q3 4 11 16q17 26 29.5 41.5t33 29.5t41.5 14q34 0 50 -19q8 -9 10 -17q5 -22 12 -37q8 -17 19 -17
t32.5 1.5t33.5 1.5q57 0 57 -27q0 -7 -11.5 -13.5t-13.5 -8.5q-3 -4 -9 -5q-8 -1 -29 -8t-32 -9q-15 -3 -36 -3zM243 604q6 0 20 7l74 34q33 16 59 33q9 6 24 6q14 0 23 -9q7 -7 7 -16q0 -27 -7 -38q-9 -12 -59 -31l-92 -35q-14 -5 -28 -5q-13 0 -17.5 3.5t-14.5 18.5
q-5 8 -5 13q0 2 1 6t5 8.5t10 4.5z" />
    <glyph glyph-name="uni0098" horiz-adv-x="302" 
d="M123 75q4 0 10 6q3 3 16 24q30 50 45 76t31.5 68t22.5 81q5 31 5 52q0 5 -4 13.5t-5 10.5q-2 8 -4 8t-5 -3l-2.5 -2.5t-3 -2.5t-2.5 -2.5t-2 -2.5l-2 -2l-5 -7q-5 -8 -12 -18.5t-16.5 -25.5t-19.5 -33.5t-19.5 -38.5t-19 -43.5t-15.5 -45.5q-12 -42 -12 -71q0 -12 7 -25
q9 -16 12 -16zM333 335q-4 0 -6 -7q-45 -180 -118 -268q-18 -22 -28 -32q-28 -28 -56 -28q-18 0 -27 6q-47 30 -56 62q-6 21 -6 62q0 34 6 64q13 69 73 169q14 23 20 32q3 4 11 16q17 26 29.5 41.5t33 29.5t41.5 14q34 0 50 -19q8 -9 10 -17q5 -22 12 -37q8 -17 19 -17
t32.5 1.5t33.5 1.5q57 0 57 -27q0 -7 -11.5 -13.5t-13.5 -8.5q-3 -4 -9 -5q-8 -1 -29 -8t-32 -9q-15 -3 -36 -3zM253 688q5 0 11 -9q6 -7 31 -30l77 -69q18 -16 18 -24q0 -1 -7 -31q-3 -14 -21 -14q-19 0 -31 9l-77 67q-14 11 -51 33q-7 4 -7 17q0 27 11 41q11 13 27 13
q8 0 13 -1.5t6 -1.5z" />
    <glyph glyph-name="uni0099" horiz-adv-x="302" 
d="M123 75q4 0 10 6q3 3 16 24q30 50 45 76t31.5 68t22.5 81q5 31 5 52q0 5 -4 13.5t-5 10.5q-2 8 -4 8t-5 -3l-2.5 -2.5t-3 -2.5t-2.5 -2.5t-2 -2.5l-2 -2l-5 -7q-5 -8 -12 -18.5t-16.5 -25.5t-19.5 -33.5t-19.5 -38.5t-19 -43.5t-15.5 -45.5q-12 -42 -12 -71q0 -12 7 -25
q9 -16 12 -16zM333 335q-4 0 -6 -7q-45 -180 -118 -268q-18 -22 -28 -32q-28 -28 -56 -28q-18 0 -27 6q-47 30 -56 62q-6 21 -6 62q0 34 6 64q13 69 73 169q14 23 20 32q3 4 11 16q17 26 29.5 41.5t33 29.5t41.5 14q34 0 50 -19q8 -9 10 -17q5 -22 12 -37q8 -17 19 -17
t32.5 1.5t33.5 1.5q57 0 57 -27q0 -7 -11.5 -13.5t-13.5 -8.5q-3 -4 -9 -5q-8 -1 -29 -8t-32 -9q-15 -3 -36 -3zM296 605q-4 0 -16 -6q-56 -28 -66 -38q-3 -3 -15 -3q-17 0 -23 10q-6 9 -6 14q0 20 5 33q0 1 7 11q5 8 46 25l73 31q7 3 19 3q19 0 23 -9l3.5 -3.5t4.5 -7.5
l41 -103q6 -15 6 -23q0 -5 -1 -8t-2.5 -4.5l-4 -4t-3.5 -4.5q-6 -11 -23 -11q-16 0 -23 14l-38 74q-5 10 -7 10z" />
    <glyph glyph-name="uni009A" horiz-adv-x="302" 
d="M123 75q4 0 10 6q3 3 16 24q30 50 45 76t31.5 68t22.5 81q5 31 5 52q0 5 -4 13.5t-5 10.5q-2 8 -4 8t-5 -3l-2.5 -2.5t-3 -2.5t-2.5 -2.5t-2 -2.5l-2 -2l-5 -7q-5 -8 -12 -18.5t-16.5 -25.5t-19.5 -33.5t-19.5 -38.5t-19 -43.5t-15.5 -45.5q-12 -42 -12 -71q0 -12 7 -25
q9 -16 12 -16zM333 335q-4 0 -6 -7q-45 -180 -118 -268q-18 -22 -28 -32q-28 -28 -56 -28q-18 0 -27 6q-47 30 -56 62q-6 21 -6 62q0 34 6 64q13 69 73 169q14 23 20 32q3 4 11 16q17 26 29.5 41.5t33 29.5t41.5 14q34 0 50 -19q8 -9 10 -17q5 -22 12 -37q8 -17 19 -17
t32.5 1.5t33.5 1.5q57 0 57 -27q0 -7 -11.5 -13.5t-13.5 -8.5q-3 -4 -9 -5q-8 -1 -29 -8t-32 -9q-15 -3 -36 -3zM254 703q33 0 38 -14q7 -19 7 -28q0 -12 -3 -20t-9 -17t-9 -15q-7 -17 -37 -17q-14 0 -18.5 0.5t-7 2.5t-5.5 7q-8 17 -8 19q0 17 1 25q2 17 13 40q8 17 38 17z
M436 632q0 -3 3.5 -15t3.5 -18q0 -11 -9 -29q-10 -20 -17 -23.5t-31 -3.5q-13 0 -18.5 3.5t-9.5 16.5q-1 3 -6.5 14t-5.5 20q0 11 7 29q7 17 12 21t17 4q2 0 8.5 -0.5t10.5 -0.5q33 0 35 -18z" />
    <glyph glyph-name="uni009B" horiz-adv-x="302" 
d="M123 75q4 0 10 6q3 3 16 24q30 50 45 76t31.5 68t22.5 81q5 31 5 52q0 5 -4 13.5t-5 10.5q-2 8 -4 8t-5 -3l-2.5 -2.5t-3 -2.5t-2.5 -2.5t-2 -2.5l-2 -2l-5 -7q-5 -8 -12 -18.5t-16.5 -25.5t-19.5 -33.5t-19.5 -38.5t-19 -43.5t-15.5 -45.5q-12 -42 -12 -71q0 -12 7 -25
q9 -16 12 -16zM333 335q-4 0 -6 -7q-45 -180 -118 -268q-18 -22 -28 -32q-28 -28 -56 -28q-18 0 -27 6q-47 30 -56 62q-6 21 -6 62q0 34 6 64q13 69 73 169q14 23 20 32q3 4 11 16q17 26 29.5 41.5t33 29.5t41.5 14q34 0 50 -19q8 -9 10 -17q5 -22 12 -37q8 -17 19 -17
t32.5 1.5t33.5 1.5q57 0 57 -27q0 -7 -11.5 -13.5t-13.5 -8.5q-3 -4 -9 -5q-8 -1 -29 -8t-32 -9q-15 -3 -36 -3zM361 608q5 0 25 8q33 13 44 13q20 0 22 -19q1 -14 1 -22q0 -4 -8 -10q-28 -20 -41 -28q-28 -16 -52 -16q-44 0 -61 46q-9 24 -14 24q-6 0 -21 -11
q-13 -9 -26 -9q-34 0 -34 14q0 8 -1.5 16.5t-1.5 15.5q0 16 7 19l52 23q23 10 43 10q29 0 45 -39q9 -24 12.5 -29.5t8.5 -5.5z" />
    <glyph glyph-name="uni009C" horiz-adv-x="344" 
d="M215 72q-12 -18 -38.5 -44.5t-47.5 -39.5q-8 -5 -19 -5q-28 0 -55 19q-21 16 -22 31q-1 8 -1 35q0 41 26 122q4 14 9 32.5t9 30.5q6 18 18 56.5t23.5 70.5t27.5 61q14 26 43 26q15 0 25 -5.5t11 -10.5q0 -2 3.5 -11t3.5 -15q0 -13 -18 -28q-18 -16 -27 -48
q-9 -33 -39.5 -125.5t-38.5 -133.5q-3 -16 -3 -23q0 -10 4 -10q2 0 8 6q13 13 20.5 22t14 18.5t12.5 17.5q93 115 133 223q6 15 17 23q8 6 27 6q8 0 12 -2t8 -5t7 -4q14 -6 14 -15q0 -16 -7 -32q-53 -119 -73 -225q-10 -54 -10 -78q0 -12 5 -30t5 -28q0 -16 -6 -22
q-4 -4 -20 -4q-21 0 -37 15q-5 4 -9.5 6t-6.5 4t-3 9q-5 25 -5 44q0 13 3.5 40t3.5 29t-2 2q-1 0 -5 -5zM257 568q6 0 20 7l74 34q33 16 59 33q9 6 24 6q14 0 23 -9q7 -7 7 -16q0 -27 -7 -38q-9 -12 -59 -31l-92 -35q-14 -5 -28 -5q-13 0 -17.5 3.5t-14.5 18.5q-5 8 -5 13
q0 2 1 6t5 8.5t10 4.5z" />
    <glyph glyph-name="uni009D" horiz-adv-x="344" 
d="M215 72q-12 -18 -38.5 -44.5t-47.5 -39.5q-8 -5 -19 -5q-28 0 -55 19q-21 16 -22 31q-1 8 -1 35q0 41 26 122q4 14 9 32.5t9 30.5q6 18 18 56.5t23.5 70.5t27.5 61q14 26 43 26q15 0 25 -5.5t11 -10.5q0 -2 3.5 -11t3.5 -15q0 -13 -18 -28q-18 -16 -27 -48
q-9 -33 -39.5 -125.5t-38.5 -133.5q-3 -16 -3 -23q0 -10 4 -10q2 0 8 6q13 13 20.5 22t14 18.5t12.5 17.5q93 115 133 223q6 15 17 23q8 6 27 6q8 0 12 -2t8 -5t7 -4q14 -6 14 -15q0 -16 -7 -32q-53 -119 -73 -225q-10 -54 -10 -78q0 -12 5 -30t5 -28q0 -16 -6 -22
q-4 -4 -20 -4q-21 0 -37 15q-5 4 -9.5 6t-6.5 4t-3 9q-5 25 -5 44q0 13 3.5 40t3.5 29t-2 2q-1 0 -5 -5zM253 648q5 0 11 -9q6 -7 31 -30l77 -69q18 -16 18 -24q0 -1 -7 -31q-3 -14 -21 -14q-19 0 -31 9l-77 67q-14 11 -51 33q-7 4 -7 17q0 27 11 41q11 13 27 13
q8 0 13 -1.5t6 -1.5z" />
    <glyph glyph-name="uni009E" horiz-adv-x="344" 
d="M215 72q-12 -18 -38.5 -44.5t-47.5 -39.5q-8 -5 -19 -5q-28 0 -55 19q-21 16 -22 31q-1 8 -1 35q0 41 26 122q4 14 9 32.5t9 30.5q6 18 18 56.5t23.5 70.5t27.5 61q14 26 43 26q15 0 25 -5.5t11 -10.5q0 -2 3.5 -11t3.5 -15q0 -13 -18 -28q-18 -16 -27 -48
q-9 -33 -39.5 -125.5t-38.5 -133.5q-3 -16 -3 -23q0 -10 4 -10q2 0 8 6q13 13 20.5 22t14 18.5t12.5 17.5q93 115 133 223q6 15 17 23q8 6 27 6q8 0 12 -2t8 -5t7 -4q14 -6 14 -15q0 -16 -7 -32q-53 -119 -73 -225q-10 -54 -10 -78q0 -12 5 -30t5 -28q0 -16 -6 -22
q-4 -4 -20 -4q-21 0 -37 15q-5 4 -9.5 6t-6.5 4t-3 9q-5 25 -5 44q0 13 3.5 40t3.5 29t-2 2q-1 0 -5 -5zM332 577q-4 0 -16 -6q-56 -28 -66 -38q-3 -3 -15 -3q-17 0 -23 10q-6 9 -6 14q0 20 5 33q0 1 7 11q5 8 46 25l73 31q7 3 19 3q19 0 23 -9l3.5 -3.5t4.5 -7.5l41 -103
q6 -15 6 -23q0 -5 -1 -8t-2.5 -4.5l-4 -4t-3.5 -4.5q-6 -11 -23 -11q-16 0 -23 14l-38 74q-5 10 -7 10z" />
    <glyph glyph-name="uni009F" horiz-adv-x="344" 
d="M215 72q-12 -18 -38.5 -44.5t-47.5 -39.5q-8 -5 -19 -5q-28 0 -55 19q-21 16 -22 31q-1 8 -1 35q0 41 26 122q4 14 9 32.5t9 30.5q6 18 18 56.5t23.5 70.5t27.5 61q14 26 43 26q15 0 25 -5.5t11 -10.5q0 -2 3.5 -11t3.5 -15q0 -13 -18 -28q-18 -16 -27 -48
q-9 -33 -39.5 -125.5t-38.5 -133.5q-3 -16 -3 -23q0 -10 4 -10q2 0 8 6q13 13 20.5 22t14 18.5t12.5 17.5q93 115 133 223q6 15 17 23q8 6 27 6q8 0 12 -2t8 -5t7 -4q14 -6 14 -15q0 -16 -7 -32q-53 -119 -73 -225q-10 -54 -10 -78q0 -12 5 -30t5 -28q0 -16 -6 -22
q-4 -4 -20 -4q-21 0 -37 15q-5 4 -9.5 6t-6.5 4t-3 9q-5 25 -5 44q0 13 3.5 40t3.5 29t-2 2q-1 0 -5 -5zM279 673q33 0 38 -14q7 -19 7 -28q0 -12 -3 -20t-9 -17t-9 -15q-7 -17 -37 -17q-14 0 -18.5 0.5t-7 2.5t-5.5 7q-8 17 -8 19q0 17 1 25q2 18 13 40q8 17 38 17z
M436 553q0 -3 3.5 -15t3.5 -18q0 -11 -9 -29q-10 -20 -17 -23.5t-31 -3.5q-13 0 -18.5 3.5t-9.5 16.5q-1 3 -6.5 14t-5.5 20q0 12 7 29t12 21t17 4q2 0 8.5 -0.5t10.5 -0.5q33 0 35 -18z" />
    <glyph glyph-name="uni00A0" unicode="&#xa0;" horiz-adv-x="464" 
d="M242 373q-95 0 -107 10q-7 5 -7 35q0 28 4 32q2 2 3 4q5 11 26 11q5 0 20 -2l47 -7q29 -4 38 -4q11 0 16 6t15 36l31 89q4 11 7 19t5.5 15t3.5 10q3 9 8 10q7 2 15.5 5t15 4.5t17.5 1.5q20 0 29 -7q6 -4 6 -8q0 -1 -0.5 -3t-0.5 -3t1.5 -4t1.5 -5q0 -4 -2 -12l-12 -40
q-3 -10 -13 -25q-13 -21 -25 -52q-6 -15 -6 -22q0 -3 3 -3q16 0 80 12q15 3 31 3t27 -6q10 -5 10 -18q0 -12 -2.5 -20t-7 -17t-6.5 -15q-2 -7 -18 -7q-19 0 -52.5 -4t-37.5 -4q-36 -2 -51 -7q-10 -3 -20 -29q-8 -19 -22 -67q-16 -53 -51.5 -154t-52.5 -159q-3 -12 -7 -14.5
t-13 -2.5q-20 0 -24 14q-1 5 -14 11q-13 7 -13 14q0 6 3 18t8 26.5t6 18.5q1 2 5 14t10 31.5t12 38.5l56 187q10 33 10 41q0 4 -6 4z" />
    <glyph glyph-name="exclamdown" unicode="&#xa1;" horiz-adv-x="315" 
d="M332 625q-7 0 -15 -9q-86 -97 -86 -162q0 -24 5 -35q7 -17 17 -17q6 0 15 13q49 71 66 103t17 54q0 16 -5.5 34.5t-13.5 18.5zM335 377q-24 -24 -66 -24q-31 0 -46 10q-38 24 -50 55q-13 33 -13 65q0 54 58 137q40 57 89 57q52 0 81 -29q14 -14 24 -39.5t10 -49.5
q0 -36 -25.5 -91t-61.5 -91z" />
    <glyph glyph-name="cent" unicode="&#xa2;" horiz-adv-x="356" 
d="M242 389q-3 0 -16 -19q-53 -77 -71 -129q-3 -10 -11 -29t-10 -26q-9 -29 -9 -69q0 -17 4 -30.5t9 -13.5q2 0 6 13q15 47 33 102t36.5 109t24.5 74q5 15 5 17q0 1 -1 1zM309 390q-2 0 -4 -8q0 -1 -41 -125t-54 -169q-7 -23 -7 -27q0 -3 3 -3q4 0 18 8q15 9 25.5 21.5
t12.5 14.5q35 28 65 28q16 0 24 -8q11 -11 11 -19q0 -10 -17 -24q-99 -81 -143 -86q-20 -2 -22 -8q-24 -67 -27 -72q-8 -14 -22 -14q-10 0 -13.5 2t-9 8.5t-12.5 11.5q-7 6 -7 12q0 8 2.5 14.5t7.5 15.5t8 17q6 14 6 20q0 3 -9 8q-31 18 -46.5 51.5t-15.5 62.5q0 67 20 114
q52 124 115 183q28 26 46 34.5t40 8.5q5 0 7 7q15 45 23.5 58.5t26.5 13.5q7 0 12.5 -1.5t7.5 -1.5q10 0 17 -5.5t7 -9.5q0 -1 -2.5 -4t-7.5 -11.5t-10 -21.5q-13 -30 -13 -35q0 -4 6 -6q16 -5 27 -18q29 -32 29 -60q0 -18 -18 -81q-2 -8 -4 -21t-3 -15q-4 -11 -29 -11
q-21 0 -35 14t-14 20t3.5 18t8.5 26.5t6 19.5q8 27 8 39q0 14 -7 14z" />
    <glyph glyph-name="sterling" unicode="&#xa3;" horiz-adv-x="400" 
d="M138 51q9 0 54 12q27 7 29 8q83 20 92 29q8 8 57 8q28 0 35 -17q6 -13 10 -18q8 -10 8 -25q0 -7 -1.5 -11t-8 -8t-19.5 -4q-9 0 -15 0.5t-7 0.5q-9 0 -106 -25q-52 -13 -114 -26q-43 -9 -98 -9q-18 0 -27 2q-18 4 -20 19q-3 26 -5 31q-3 7 -3 14q0 8 6 14t26 6
q5 0 14 -1.5t10 -1.5q2 0 2 2l-1 1v2t-0.5 2.5t-1 5t-0.5 7.5q0 11 58 158q2 5 2 8t-10 4q-10 2 -14 3.5t-7.5 7t-3.5 15.5q0 18 -2 24q-2 7 -2 20q0 7 15 7q27 0 52 5q11 2 15 10l11 26q40 95 75 156.5t66 91t55.5 39.5t55.5 10q41 0 53 -22l14 -21t13.5 -24t3.5 -20v-6
q0 -9 -16.5 -56t-16.5 -51q0 -10 -8 -18.5t-24 -8.5q-8 0 -13 1.5t-10 3.5t-9 3q-8 2 -11.5 4t-6 8t-2.5 17q0 13 11 36t12 34q0 6 5.5 19.5t5.5 23.5q0 14 -4 14q-10 0 -32 -19q-25 -22 -56 -67.5t-53 -97.5l-23 -54q-3 -7 -3 -10q0 -2 2 -2q3 0 22 5q28 7 41 7q18 0 23 -2
t14 -15q12 -16 12 -29q0 -11 -3 -19q-2 -6 -8 -6q-2 0 -14.5 -3.5t-20.5 -4.5q-16 -1 -87 -20q-15 -4 -19 -7t-8 -14q-68 -170 -68 -179q0 -3 2 -3z" />
    <glyph glyph-name="yen" unicode="&#xa5;" horiz-adv-x="400" 
d="M416 313q0 -64 -26.5 -131.5t-82.5 -117.5t-127 -50q-50 0 -81 31q-44 44 -44 117q0 64 29 136.5t81 125t108 52.5q41 0 63.5 -11t37.5 -39q4 -8 11 -18.5t12.5 -21t10.5 -26.5q8 -23 8 -47z" />
    <glyph glyph-name="section" unicode="&#xa7;" horiz-adv-x="355" 
d="M282 294q-3 0 -11 -8q-4 -4 -16.5 -15.5t-19.5 -18.5q-26 -28 -41 -36.5t-32 -8.5q-9 0 -11.5 -1.5t-4.5 -8.5q-9 -27 -25 -66q-11 -27 -11 -32q0 -4 8 -4q15 0 23 -6.5t16 -28.5q6 -16 13 -16t20 13q38 38 69 109q29 68 29 110q0 18 -6 18zM358 588q-2 0 -11 -7
q-13 -10 -38 -41q-37 -47 -64 -114q-11 -27 -19 -27q-2 0 -5 -6q-5 -10 -11.5 -27.5t-11 -29.5t-4.5 -13q0 -2 2 -2q3 0 15 13q74 78 132 213q16 36 16 39q0 2 -1 2zM324 364q0 -2 5 -2q45 0 45 -60q0 -55 -38 -142q-31 -70 -59.5 -110t-70.5 -60q-21 -10 -46 -10
q-38 0 -66 28q-9 9 -11 9q-3 0 -10 -20q-70 -214 -82 -295q-3 -19 -23 -27q-3 -1 -10.5 -5t-13 -6t-11.5 -2q-10 0 -16 5q-3 2 -9 8q-2 2 -2 10q0 13 1 27q1 15 6 32.5t12.5 37.5t10.5 31q1 2 2.5 6t4.5 13t7 23q14 58 136 392q11 29 46 117t36 91q5 12 12 18q6 5 13 20
q8 18 33 54.5t40 52.5q30 32 51 45.5t51 13.5q14 0 23.5 -4t16.5 -9.5t11 -7.5q8 -3 12.5 -5t9.5 -8.5t5 -16.5q0 -15 -11 -39q-1 -3 -3 -11t-10 -27t-25 -51q-31 -58 -63 -102q-10 -13 -10 -14z" />
    <glyph glyph-name="copyright" unicode="&#xa9;" horiz-adv-x="645" 
d="M398 207q22 31 34.5 41t30.5 10h19q28 0 28 -17q0 -1 1.5 -4t1.5 -6q0 -7 -6 -11q-5 -4 -19 -23q-27 -37 -42.5 -54.5t-40 -33t-50.5 -15.5q-28 0 -44 4q-57 14 -80 65q-12 27 -12 69t17 94q18 57 61 122q63 95 146 95q26 0 41 -4q29 -8 53 -44q5 -8 5 -21q0 -17 -8 -42
t-8 -31q0 -15 -31 -15q-52 0 -52 20q0 12 8.5 34t8.5 30q0 15 -14 15q-22 0 -54 -42.5t-50 -81.5q-45 -95 -45 -161q0 -21 9 -36.5t27 -15.5q24 0 65 59zM597 414q0 94 -45 140.5t-117 46.5q-110 0 -187 -121q-31 -49 -53 -120t-22 -139q0 -93 47.5 -136.5t109.5 -43.5
q67 0 120.5 39.5t90.5 106.5q56 103 56 227zM508 29q-41 -29 -80 -39t-96 -10q-38 0 -81 14t-64 35q-24 24 -38.5 42.5t-32 64.5t-17.5 101q0 147 77 275q44 73 106.5 115.5t135.5 42.5q68 0 106 -13.5t68 -55.5q5 -8 19.5 -24t25.5 -33t20 -41q20 -53 20 -110
q0 -31 -7.5 -73t-24.5 -96t-52.5 -107t-84.5 -88z" />
    <glyph glyph-name="ordfeminine" unicode="&#xaa;" horiz-adv-x="629" 
d="M239 560l-15 -2q-14 -1 -28 -1q-38 0 -44 14q-1 2 -1 33q0 23 19 23q9 0 26 -2t32 -2q38 0 82 11q47 11 81 11h15q51 0 51 -15q0 -3 -2.5 -12.5t-2.5 -14.5q0 -8 -7 -17.5t-19 -9.5h-12q-12 0 -21 4t-19 4q-6 0 -21.5 -4t-32.5 -6q2 -1 2 -6q0 -8 -5 -17
q-23 -40 -51 -108.5t-44 -127.5q-5 -19 -5 -54q0 -17 -5.5 -25t-22.5 -8q-15 0 -26 7q-15 9 -17 10q-6 3 -6 19q0 9 21.5 82t29.5 96q25 67 45 105q5 10 5 11q0 2 -2 2zM578 393q-1 -2 -11.5 -15.5t-20 -26.5t-11.5 -17q-5 -10 -22 -10q-11 0 -18.5 1.5t-9.5 1.5
q-13 0 -19 6q-15 17 -15 53q0 6 0.5 14.5t1.5 13.5l1 6q0 3 -1 3q-2 0 -3 -3q0 -1 -6 -14.5t-12 -28t-11 -28.5t-6 -16q-1 -5 -8 -22.5t-12.5 -35t-5.5 -26.5t-13 -13q-19 -7 -23 -7q-7 0 -14 5t-11 6q-10 2 -10 24q0 15 23 73q29 75 74.5 160.5t67.5 136.5q4 9 11 9l6 3
q7 2 19 2q8 0 13.5 -1t7.5 -2.5t4.5 -4.5t4.5 -4q4 -3 4 -16q0 -8 -19 -65q-2 -5 -4 -19.5t-2 -16.5q-11 -58 -11 -94q0 -2 2 -2q1 0 11 12q29 37 82.5 96.5t58.5 67.5q9 12 14 23t23 11q11 0 18 -3.5t8 -3.5q5 0 10 -4q6 -6 6 -14q0 -9 -6 -19q-74 -123 -115 -296
q-14 -58 -14 -80q0 -4 -0.5 -6t-5 -3.5t-12.5 -1.5q-11 0 -17.5 1.5t-10.5 1.5q-10 0 -22 12q-3 3 -3 5q0 40 33 143q11 34 11 35q0 2 -2 2q-1 0 -8 -9z" />
    <glyph glyph-name="guillemotleft" unicode="&#xab;" 
d="M269 752q6 0 20 7l74 34q33 16 59 33q9 6 24 6q14 0 23 -9q7 -7 7 -16q0 -27 -7 -38q-9 -12 -59 -31l-92 -35q-14 -5 -28 -5q-13 0 -17.5 3.5t-14.5 18.5q-5 8 -5 13q0 2 1 6t5 8.5t10 4.5z" />
    <glyph glyph-name="logicalnot" unicode="&#xac;" 
d="M308 835q33 0 38 -14q7 -19 7 -28q0 -12 -3 -20t-9 -17t-9 -15q-7 -17 -37 -17q-14 0 -18.5 0.5t-7 2.5t-5.5 7q-8 17 -8 19q0 17 1 25q2 17 13 40q8 17 38 17zM490 764q0 -3 3.5 -15t3.5 -18q0 -11 -9 -29q-10 -20 -17 -23.5t-31 -3.5q-13 0 -18.5 3.5t-9.5 16.5
q-1 3 -6.5 14t-5.5 20q0 11 7 29q7 17 12 21t17 4q2 0 8.5 -0.5t10.5 -0.5q33 0 35 -18z" />
    <glyph glyph-name="uni00AD" unicode="&#xad;" horiz-adv-x="480" 
d="M309 240q12 0 52.5 7t62.5 7q25 0 33 -8q7 -7 7 -16q0 -5 -4.5 -20.5t-5.5 -22.5q-2 -10 -17 -10q-6 0 -13.5 1t-8.5 1q-6 0 -20 -3t-46 -6.5t-79 -4.5l-42 -77q-29 -53 -41 -75q-7 -13 -23 -13q-25 0 -30 6q-13 15 -13 32q0 5 9 17.5t11 20.5q2 9 14 21.5t15 18.5l25 49
q-74 2 -77 5q-19 19 -19 52q0 4 7 18q4 9 17 9q15 0 36 -4q46 -8 74 -8l28 53h-11q-81 0 -118 11q-10 3 -12 39q0 11 1 17q1 8 7 15q5 6 17 6q17 0 53 -8q24 -5 47 -5q3 0 57 3l31 62q28 56 43 67q2 1 7.5 8t8.5 11q3 3 13 3q17 0 24 -8q11 -12 11 -22q0 -6 1.5 -12.5
t1.5 -7.5q0 -9 -4 -14q-8 -10 -17.5 -19t-14.5 -16q-4 -6 -12.5 -21t-13.5 -22q2 0 30 3.5t37 3.5q26 0 34 -11q3 -4 3 -18t-10 -38q-4 -9 -13 -9q-41 0 -55 -2l-69 -9q-9 -17 -29 -57z" />
    <glyph glyph-name="registered" unicode="&#xae;" horiz-adv-x="597" 
d="M200 257q1 0 12 4q64 24 99 39q13 6 16 9t6 16q19 91 47 186q4 14 4 17q0 2 -2 2q-1 0 -9 -11q-128 -180 -161 -235q-14 -23 -14 -25t2 -2zM303 206q-2 0 -10 -3q-28 -11 -82.5 -26t-56.5 -15q-12 -4 -18 -17q-20 -45 -36 -101q-8 -29 -8 -42q0 -3 -4 -6q-7 -5 -9 -13
q-3 -14 -21 -14q-38 0 -44 8q-13 17 -13 33q0 15 7 40q8 32 33 85q5 11 5 14t-4 3q-28 0 -28 14q0 30 12 53q10 19 15 20q3 1 16 1q5 0 14.5 -0.5t13.5 -0.5q7 0 18 18q39 67 94.5 145t111.5 152.5t75 101.5q14 21 20 21q7 0 30 7q12 4 29 4q31 0 36 -11q4 -6 4 -12
q0 -3 -5.5 -20.5t-5.5 -19.5q0 -3 2 -3q8 0 42 10q58 17 129 17q5 0 11.5 -1t10.5 -2t5 -1q21 0 46 -50q3 -6 3 -16q0 -8 -9 -17q-8 -8 -29 -8q-10 0 -18 6q-7 5 -13 5q-7 0 -13 2t-8 2q-39 0 -89 -14q-30 -8 -87 -28q-7 -2 -8.5 -4.5t-4.5 -15.5l-15 -60t-15 -65
q-6 -29 -6 -32q0 -2 2 -2t9 3q49 19 112 19q36 0 50 -13q13 -11 13 -45q0 -16 -21 -16q-1 0 -8.5 -1.5t-16.5 -1.5q-8 0 -13.5 1t-6.5 1q-19 0 -46 -10q-41 -15 -79 -33q-7 -3 -10.5 -6t-4.5 -4.5t-2 -6.5q-28 -122 -34 -184q-2 -19 -2 -22q0 -8 3.5 -14.5t6.5 -6.5
q16 0 42 13q8 4 26 14.5t25 13.5q14 6 44 30t48 32q16 7 32 7q9 0 21 -6q31 -16 31 -26q0 -8 -2 -12q-4 -9 -42 -36q-67 -47 -109 -67q-71 -33 -155 -33q-41 0 -56 34q-5 11 -5 25q0 11 1 25q3 52 23 161q3 16 3 20q0 3 -2 3z" />
    <glyph glyph-name="macron" unicode="&#xaf;" horiz-adv-x="440" 
d="M393 395q-1 0 -12 -14q-74 -96 -196 -265q-16 -22 -16 -26q0 -6 4 -15q13 -35 33 -35q38 0 61 39q85 149 116 265q11 41 11 47q0 4 -1 4zM166 204q1 0 19 23l198 262q11 13 11 19q0 4 -4 12q-5 11 -13.5 19.5t-14.5 8.5q-13 0 -17 4q-3 3 -5 3q-3 0 -12 -10
q-95 -108 -143 -248q-20 -59 -20 -90q0 -3 1 -3zM454 580q1 0 8.5 5t18.5 5t19 -4q9 -5 12 -13q1 -3 3 -6t3 -7t1 -12q0 -13 -10 -22l-23 -19q-8 -7 -8 -11q0 -7 1 -15q2 -12 2 -37q0 -24 -1 -36q-3 -42 -39.5 -156.5t-96.5 -204.5q-49 -74 -139 -74q-66 0 -92 33q-4 5 -5 5
t-5 -4q-3 -3 -6 -5t-4 -3q-3 -3 -17 -3q-12 0 -19 2q-3 1 -4 3t-2.5 6t-2.5 6q-7 12 -7 23q0 5 29 38q8 9 8 13q0 3 -1 9q-2 14 -2 36q0 27 1 42q10 146 107 315q18 32 48.5 71t56.5 55t56 16q13 0 21.5 -5t15.5 -5q1 0 6.5 1.5t13.5 1.5q14 0 29 -14q7 -6 16 -20
q6 -10 8 -10z" />
    <glyph glyph-name="degree" unicode="&#xb0;" horiz-adv-x="616" 
d="M134 197q6 0 32 17l101 68q10 7 10 9q0 3 -7 10q-12 12 -32 27q-18 13 -34 13q-12 0 -26.5 -14.5t-26.5 -38.5q-21 -41 -21 -74q0 -17 4 -17zM579 308q3 0 3 9q0 38 -30 38q-34 0 -122 -57q-14 -9 -14 -12q0 -2 8 -10q28 -28 70 -64q16 -14 22 -14q10 0 28.5 22.5
t18.5 42.5q0 12 -1.5 16.5t-1.5 6.5q0 9 7 16q6 6 12 6zM342 234q-4 0 -15 -8q-110 -76 -133 -89q-56 -32 -86 -32q-24 0 -34 10q-8 8 -12 22q-2 7 -8.5 19t-6.5 24q0 49 23.5 111t65.5 98q35 30 75 30q50 0 126 -66q9 -8 13 -8q5 0 22 11q59 37 101 54q39 16 91 16
q68 0 86 -56q6 -19 6 -51q0 -22 -11 -26q-7 -2 -7 -11q0 -12 -4 -26q-23 -79 -71 -118q-21 -17 -27.5 -20t-23.5 -3q-27 0 -59.5 22t-84.5 74q-23 23 -26 23z" />
    <glyph glyph-name="plusminus" unicode="&#xb1;" horiz-adv-x="480" 
d="M354 402q0 -3 4 -3q9 0 19 1.5t27.5 4t35.5 4.5q9 1 14 1q26 0 37 -14q3 -4 3 -10q0 -8 -14 -43q-4 -10 -12 -10q-6 0 -11 1t-7 1t-8.5 -1.5t-10.5 -1.5q-13 -2 -37.5 -4t-49.5 -5q-14 -2 -16 -4q-3 -3 -5 -11q-18 -62 -31 -130q-4 -20 -7 -25q-5 -8 -21 -9q-3 0 -9 -1.5
t-13 -1.5q-18 0 -26 6q-6 5 -6 8q0 10 3.5 26t11.5 43.5t12 46.5q7 28 7 38q0 3 -2 3h-23q-26 0 -50 4q-25 4 -30 6q-12 5 -12 43q0 13 1 16.5t8 10.5q8 8 23 8q13 0 23 -3q18 -5 57 -5h21q10 0 12 7q25 72 30 93q12 52 22 55q3 1 10.5 5t15.5 6.5t16 2.5q33 0 33 -14
q0 -3 -4 -15l-12 -36q-23 -73 -27 -86q-2 -6 -2 -8zM368 38q-2 0 -14.5 -1t-30 -2t-28.5 -1q-9 0 -51 -2t-64 -2q-25 0 -62 3.5t-44 3.5q-8 0 -11 7q-3 6 -5 29q-1 14 -1 27q0 15 35 15q2 0 35.5 -3.5t92.5 -3.5q35 0 71 3q55 4 95 4q15 0 18.5 -1.5t11.5 -12.5q2 -3 2 -8
q0 -16 -4.5 -33.5t-8.5 -21.5q-2 -2 -11 -2q-8 0 -16 1t-10 1z" />
    <glyph glyph-name="uni00B2" unicode="&#xb2;" horiz-adv-x="480" 
d="M393 219q25 0 25 -15q0 -14 -5 -22q-1 -2 -6.5 -8t-8.5 -10q-5 -8 -12 -14t-20 -6q-24 0 -73 33q-26 18 -74 49t-77 50q-12 8 -12 19t6 35q1 4 7 14t6 11q3 10 13 17.5t44 27.5q52 30 129 79q44 28 62 37q19 10 47 10q36 0 36 -12q0 -7 2.5 -16t2.5 -12q0 -4 -10 -24
q-2 -4 -8 -4q-10 0 -64 -31q-15 -8 -60.5 -37t-76.5 -46q-35 -20 -35 -24t10 -9q2 -1 16 -10.5t36.5 -24.5t40.5 -26q34 -22 43 -26q10 -5 16 -5zM63 43l-2.5 2.5t-3 2.5t-2.5 4t-1 6q0 5 2.5 15.5t2.5 16.5q0 15 26 15q8 0 25 -2.5t29 -2.5q21 0 73 5q39 3 83 3q30 0 59 4
t45 4q19 0 21 -11q1 -8 1 -32q0 -9 -6 -20q-9 -14 -29 -14l-25 -2q-25 -2 -65 -2q-4 0 -54.5 -3t-80.5 -3h-60q-28 0 -38 14z" />
    <glyph glyph-name="uni00B3" unicode="&#xb3;" horiz-adv-x="480" 
d="M356 353q-83 55 -103 62q-5 2 -17 10.5t-29 17.5q-13 7 -13 28q0 11 3 15q8 12 17 30q4 7 7 9t14 2q12 0 17 -5q10 -10 18 -14q9 -4 20 -13t23 -16q13 -8 146 -91q18 -11 18 -23q0 -15 -10 -30q-6 -8 -10.5 -18t-4.5 -11q-8 -16 -36 -31q-60 -33 -156 -97
q-51 -34 -69 -42.5t-43 -8.5q-17 0 -23 3.5t-8 15.5q-1 6 -4.5 14t-3.5 11q0 10 9 17q4 3 12 6t10 4q3 2 21 11.5t32 18.5q9 5 46.5 28.5t56.5 34.5q5 3 26.5 15.5t34.5 20.5q16 10 16 13q0 2 -17 13zM134 94q11 0 46 5q21 3 61.5 6t43.5 3q54 6 85 11q12 2 28 2
q8 0 12 -0.5t7.5 -5t3.5 -13.5q0 -30 -6 -42q-8 -14 -29 -14q-2 0 -12 -2t-27 -4.5t-37 -2.5q-10 0 -64.5 -6t-84.5 -7q-23 -1 -64 -1q-30 0 -39 13q0 1 -2.5 2.5t-4 4.5t-1.5 7q0 3 2.5 14t2.5 16q0 17 26 17q8 0 23.5 -1.5t29.5 -1.5z" />
    <glyph glyph-name="uni00B5" unicode="&#xb5;" 
d="M274 63q-1 0 -12 -17q-23 -36 -46 -53q-24 -19 -39 -19q-32 0 -53 17q-9 7 -11 9.5t-4 6t-4 10.5q-2 8 -2 24v12t0.5 11t1 9t0.5 7v2q0 3 -1 3t-8 -18q-8 -20 -21 -50q-57 -127 -106 -230q-26 -57 -28 -59q-8 -12 -21 -12q-16 0 -29 2q-6 1 -12 9t-10 8q-7 1 -7 23
q0 12 6 26q5 12 35 51q13 16 40 70q108 215 238 514q9 21 13 26t9 5q4 0 11.5 4.5t16.5 4.5q24 0 33 -6q7 -4 7 -37q0 -4 -9 -17.5t-11 -20.5q-2 -5 -17 -37.5t-21 -55.5q-5 -20 -13 -48t-11 -41t-6.5 -39.5t-5.5 -62.5q-1 -17 -1 -23q0 -12 2 -12t6 4q6 6 21.5 27
t31.5 44.5t17 25.5q38 52 53 81.5t43 109.5q6 16 13 23q6 6 29 6q9 0 17.5 -5.5t9.5 -5.5q15 0 15 -13q0 -16 -8 -34q-55 -126 -73 -225q-10 -54 -10 -74q0 -12 5 -24q3 -6 3 -23q0 -13 -1 -24q-1 -15 -33 -15q-12 0 -20.5 4.5t-12.5 5.5q-8 2 -10.5 7t-2.5 26
q0 15 0.5 28.5t1 22.5t1 16t0.5 11l1 3q0 2 -1 2z" />
    <glyph glyph-name="paragraph" unicode="&#xb6;" horiz-adv-x="315" 
d="M226 369q-13 0 -28 -27q-56 -100 -64 -123q-21 -56 -21 -113q0 -58 17 -58q7 0 29 24q42 46 68 110.5t30 103.5q-9 3 -9 14q0 8 -4.5 30.5t-9.5 32.5q-3 6 -8 6zM266 421q1 0 1 5q0 47 -23 106q-1 3 -46 90q-14 27 -14 52q0 4 2.5 12t3.5 11q1 7 4 12q4 8 26 30
q18 18 33 18q8 0 12 -4q7 -7 7 -11q0 -8 -6 -19q-8 -15 -8 -27t4 -24t9 -22.5t17 -33.5t22 -45q25 -53 30 -86q8 -47 8 -97q0 -95 -28 -182q-26 -81 -68 -140q-35 -49 -54 -65q-25 -19 -52 -19q-21 0 -30.5 2t-19 9t-11.5 8q-36 18 -43 47q-8 30 -8 70q0 17 1 25
q3 53 26 112t41 87q1 2 5.5 7.5t12 15.5t16.5 25q33 51 81 51q28 0 45 -17q3 -3 4 -3z" />
    <glyph glyph-name="periodcentered" unicode="&#xb7;" horiz-adv-x="390" 
d="M63 -118q5 0 66 7q79 9 114 9q1 0 24.5 4.5t43.5 4.5q48 0 48 -19q0 -2 0.5 -9t0.5 -12t-11 -21.5t-11 -18.5q-1 -9 -8 -12q-4 -2 -12 -2q-4 0 -12.5 0.5t-10.5 0.5h-27q-8 0 -21 1t-20 1q-15 0 -33 -2q-198 -17 -212 -17q-32 0 -43.5 3.5t-16.5 14.5q-2 6 -7 25.5
t-5 24.5q0 9 10 21t27.5 28t23.5 22q34 38 138.5 142.5t130.5 135.5q38 44 38 53q0 6 -8 21q-72 132 -114 223q-19 39 -19 55t2 21q15 40 25 55q2 4 21 7q40 7 249 7q3 0 8 3.5t16 3.5q31 0 41 -2.5t10 -10.5v-7q0 -2 1.5 -8t1.5 -9q0 -6 -4 -12.5t-4 -11.5q-2 -23 -60 -23
h-107q-89 0 -95 -3q-8 -4 -8 -13q0 -8 49 -104.5t73 -135.5q6 -10 9.5 -21t7.5 -18q2 -4 2 -9q0 -33 -17 -59q-8 -11 -44 -52q-43 -50 -127 -131.5t-105 -103.5q-26 -28 -26 -39q0 -8 7 -8z" />
    <glyph glyph-name="uni00B9" unicode="&#xb9;" horiz-adv-x="469" 
d="M360 388q-5 0 -17 -2q-45 -6 -58 -6q-5 0 -7.5 -2.5t-5.5 -14.5q-9 -29 -35 -94.5t-27 -69.5l-6.5 -13t-8.5 -23q-3 -13 -22 -64t-25 -77q-1 -5 -2 -11t-2 -9.5t-2 -6.5q-4 -8 -18 -10q-1 0 -9.5 -4.5t-17.5 -4.5q-8 0 -13 2t-11 5.5t-11 5.5q-7 3 -7 12q0 14 8 34
q16 39 42 110t41 108q6 15 14 35.5t14 35t6 15.5q10 24 10 25q0 3 -3 3q-9 0 -27 -12q-13 -8 -32 -8q-30 0 -37 5q-11 7 -11 15q0 5 -4 7t-4 10q0 7 4 19t5 16q1 7 6 7q16 0 30 2q16 2 53 9t81.5 13t103.5 11q50 4 97 11q22 3 43 3q61 0 61 -17q0 -4 3.5 -12.5t3.5 -12.5
q0 -7 -4 -14.5t-5 -10.5q-2 -8 -23 -8q-4 0 -9.5 0.5t-7.5 0.5q-12 0 -47.5 -2.5t-42.5 -2.5q-3 0 -3 -2q0 -3 4 -4q13 -5 13 -21q0 -6 -8 -28q-3 -9 -23.5 -53.5t-29.5 -75.5q-2 -7 -12.5 -36.5t-16 -51.5t-5.5 -40q0 -17 3 -29q4 -13 8 -13q13 0 44 37q15 18 21 26
q9 11 16 11t14 3.5t23 3.5t20.5 -2.5t4.5 -10.5q0 -24 -16 -44l-57 -67q-29 -24 -70 -24q-25 0 -50 19q-37 29 -41 61q-1 8 -1 22q0 21 4 44q8 47 30 108q9 25 57 133q9 21 9 24q0 2 -2 2z" />
    <glyph glyph-name="ordmasculine" unicode="&#xba;" horiz-adv-x="264" 
d="M-83 -196q-35 0 -45 2.5t-10 13.5q0 9 7 26t8 21q3 11 13.5 14.5t36.5 3.5q9 0 17.5 -0.5t13.5 -1.5t8.5 -2.5t5.5 -2.5h3q21 0 35 16q14 15 25 49q12 36 37 114.5t55 172t38 117.5q27 84 54 159t43 126q33 102 70.5 139t99.5 37q9 0 19 -0.5t15 -0.5q6 0 18.5 0.5
t21.5 0.5q19 0 20 -4q0 -1 2.5 -4.5t4 -8.5t1.5 -12q0 -1 -8 -28q-4 -14 -17 -18l-8 -5q-8 -4 -21 -4q-12 0 -23 2q-15 3 -24 3q-51 0 -75 -73q-38 -114 -74 -225t-57 -175.5t-22 -68.5q-14 -41 -34 -102.5t-36 -108.5q-19 -58 -31.5 -86.5t-32.5 -52t-45.5 -30.5t-67.5 -7
q-11 0 -24 2t-17 2z" />
    <glyph glyph-name="guillemotright" unicode="&#xbb;" horiz-adv-x="362" 
d="M365 581q-5 0 -31 -9q-29 -10 -75.5 -62t-71.5 -105q-17 -35 -17 -55q0 -6 2 -6q5 0 48 39q107 96 118 133q2 6 18 29q13 19 13 30q0 6 -4 6zM95 233q20 0 26 -2t10 -2q20 0 68 1t76 1q4 0 20 1.5t27 1.5q37 0 44 -4q3 -2 4.5 -3.5t1.5 -3t1 -5t4 -7.5q4 -5 4 -15
q0 -18 -9 -30q-4 -5 -10 -6.5t-30 -1.5q-16 0 -45 0.5t-59 0.5l-49 -1q-49 -1 -90 -1h-6q-21 0 -36 3q-14 3 -16 24q-1 4 -3.5 12.5t-2.5 24.5q0 14 16 16q12 2 28 2q11 0 17 -3t9 -3zM298 365q-1 0 -8 -7l-27 -27q-57 -57 -85 -57q-21 0 -46.5 16t-31.5 43q-2 9 -2 20
q0 21 9 47q14 41 63 116q32 49 90 89t96 40q31 0 46 -13q12 -10 26 -30q3 -5 13 -7t13 -6q8 -11 8 -17q0 -12 -11 -23q-4 -4 -14 -20q-64 -106 -64 -178q0 -38 11 -57q2 -4 2 -6q0 -13 -8 -15l-10.5 -3.5t-14.5 -4t-16 -1.5q-14 0 -20 4q-5 3 -8 12q-9 25 -9 60v23q0 2 -2 2
z" />
    <glyph glyph-name="questiondown" unicode="&#xbf;" horiz-adv-x="333" 
d="M258 259q-24 -32 -36 -46q-45 -55 -76 -96q-3 -4 -11.5 -13t-9.5 -11q-5 -6 -5 -10t5 -10q13 -15 19 -15q17 0 32 21q56 79 90 174q6 17 6 18q0 2 -2 2q-1 0 -12 -14zM132 184q72 88 157 197q8 10 8 12q0 3 -3 3q-12 0 -18 16q-5 15 -8 15q-7 0 -21 -19
q-88 -122 -116 -204q-8 -23 -8 -25t2 -2q1 0 7 7zM73 30q-1 0 -4 -4q-6 -10 -26 -23q-5 -3 -15 -3q-14 0 -15 7q-1 9 -4.5 19t-3.5 17q0 8 8 11t23 18q12 12 12 17q0 1 -2 7.5t-3.5 18.5t-1.5 26q0 53 27 119q21 51 79 136q16 23 50 65q31 38 70 38q35 0 59 -36q2 -3 6.5 -6
t5.5 -5q3 -4 4 -4q2 0 6 5q16 19 31 19q8 0 11 -0.5t5.5 -3t6.5 -9.5q6 -12 6 -20q0 -5 -1.5 -8.5t-4 -5t-8 -5.5t-11.5 -9q-15 -14 -15 -22q0 -29 -6 -59q-18 -88 -50 -162.5t-61 -114.5q-47 -65 -100 -65q-16 0 -30 7q-32 16 -43 31q-3 4 -5 4z" />
    <glyph glyph-name="Agrave" unicode="&#xc0;" horiz-adv-x="296" 
d="M189 375q-15 0 -24 -7q-15 -12 -32 -12q-25 0 -28 15q0 3 -2.5 10t-2.5 10q0 5 6 16.5t9 13.5q23 20 69 20q38 0 61 -11q45 -22 45 -65q0 -35 -18 -65.5t-99 -121.5q-63 -71 -63 -97q0 -11 9 -20.5t15 -9.5q12 0 22.5 11.5t10.5 26.5q0 2 -0.5 9t-0.5 11q0 9 5 16
q5 8 24 8q17 0 22.5 -3t12.5 -13q8 -11 8 -36q0 -14 -8.5 -34t-17.5 -30q-26 -27 -74 -27q-47 0 -72 20q-33 28 -33 64q0 34 15 59t73 96q12 15 34 40.5t36 43.5q19 25 19 41q0 10 -7.5 15.5t-13.5 5.5zM325 612q9 -10 9 -17q0 -28 -9 -39q-23 -27 -49 -27q-30 0 -36 16
q-1 2 -8.5 12t-7.5 15q0 7 7 30q8 28 17 35.5t26 7.5q11 0 20 -5q11 -7 31 -28z" />
    <glyph glyph-name="Aacute" unicode="&#xc1;" horiz-adv-x="264" 
d="M276 542q-2 0 -11 -0.5t-15 -0.5q-31 0 -31 45q0 23 10 45q6 12 9 14q4 3 16 3q17 0 29 -5.5t20 -6.5q17 -2 17 -23q0 -5 -12 -38q-11 -33 -32 -33zM67 89q5 14 10 18t9 18q17 65 51 171t45 142q4 14 8 17t15 3q24 0 30 -9q19 -27 19 -39q0 -9 -8 -33q-3 -9 -4.5 -20
t-4.5 -20q-57 -168 -64 -207q-10 -52 -16 -67q-26 -71 -29 -87q-2 -10 -27 -10q-17 0 -22 8q-5 9 -16 15q-11 5 -11 22q0 34 15 78z" />
    <glyph glyph-name="Acircumflex" unicode="&#xc2;" horiz-adv-x="480" 
d="M383 118q-3 0 -9 -1.5t-14 -1.5q-12 0 -18 3q-6 4 -6 8q0 6 3 15t12.5 36.5t19.5 62.5q5 17 5 24q0 13 -17 13q-23 0 -70 2.5t-74 2.5q-10 0 -30 -5q-12 -3 -53 -3q-18 0 -18 8q0 4 -1.5 9t-1.5 8q0 5 7.5 25t10.5 23q3 4 8 6t25.5 3t63.5 1h72q21 0 56 -1.5t49 -1.5
q4 0 13 1.5t18 1.5q10 0 12 -1q6 -3 13.5 -13t7.5 -16q0 -2 -6 -24q-13 -46 -35 -125q-2 -7 -4 -17.5t-4 -17.5q-4 -14 -9 -21q-3 -4 -17 -4h-9z" />
    <glyph glyph-name="Atilde" unicode="&#xc3;" horiz-adv-x="467" 
d="M246 94q3 0 10 12q24 40 44 79l151 289q58 113 88 163q9 14 24 14h26q42 0 42 -10q0 -22 -20.5 -46.5t-21.5 -26.5q-48 -93 -69 -131l-243 -452q-8 -14 -23 -14q-9 0 -14.5 -5t-16.5 -5q-17 0 -26 8q-13 11 -23 22q-11 12 -11 21q0 4 1 25.5t2 50.5q0 12 1 62.5t2 87.5
q2 56 2 91q0 15 -12 15h-33q-29 0 -38 12l-4 4q-6 6 -6 9q0 9 4 22t4 19q0 7 8 7h9q11 0 22 -1.5t18 -1.5q6 0 19.5 1t23.5 1h4q38 0 44 -13q15 -33 15 -51q0 -3 -1.5 -53t-3 -110.5t-1.5 -86.5q0 -8 3 -8z" />
    <glyph glyph-name="Adieresis" unicode="&#xc4;" horiz-adv-x="344" 
d="M-109 -188q-32 0 -41.5 2.5t-9.5 10.5q0 11 6.5 26t7.5 18q6 25 52 25q29 0 36 -1q6 -1 10 -2.5t6 -1.5q20 0 45 28q24 26 52 100q46 122 81 220q10 28 10 32t-3 7q-1 1 -20.5 12.5t-19.5 25.5q0 8 -1 12t-1 10q0 14 9 23q2 2 12 2q4 0 26 -3l22 -3q11 0 16 14
q10 28 21.5 57t21.5 53t13 32q63 164 197 164q57 0 64 -7q5 -5 5 -11q0 -4 0.5 -7t1.5 -4v-2q0 -12 -11 -34q-6 -10 -20 -10q-2 0 -5 -3.5t-7 -3.5h-9q-20 0 -32 2l-11 2q-16 0 -35 -18q-38 -34 -71 -123q-34 -91 -34 -93q0 -3 3 -3q6 0 34.5 3t38.5 3h18q16 0 21 -7
q4 -6 7 -15t5 -12t2 -6q0 -21 -5 -26q-1 -1 -12 -1q-21 0 -61 -10t-72 -10q-8 0 -15 -19q-88 -233 -124 -312q-20 -44 -47 -74t-54 -43t-46.5 -17.5t-37.5 -4.5q-11 0 -23.5 1.5t-15.5 1.5z" />
    <glyph glyph-name="Aring" unicode="&#xc5;" horiz-adv-x="480" 
d="M464 376q15 0 24 -9q7 -7 7 -12q0 -2 3 -7.5t3 -10.5q0 -9 -10 -15q-56 -32 -59 -33q-42 -21 -81 -21q-25 0 -39 10q-11 8 -24 22.5t-23 22.5q-12 9 -24 9q-11 0 -40 -15t-42 -15q-5 0 -9 0.5t-5 0.5h-9.5t-6 1.5t-5 4t-2.5 7.5q-1 9 -5 19t-4 17q0 11 8 15l35 16
q37 17 54.5 21.5t48.5 4.5q25 0 41 -10q9 -6 24.5 -20t28.5 -24t22 -10t17 2.5t11.5 4.5t10.5 6.5t8 5.5q19 12 42 12zM145 249q6 0 21.5 8t32.5 11q10 2 35 2q28 0 42 -10q13 -9 29 -24t26.5 -22.5t20.5 -7.5q13 0 33.5 13t21.5 13q9 4 36 4q11 0 15 -0.5t7 -3.5t3 -9
q0 -8 1 -17t1 -15q0 -9 -7 -13q-1 0 -7.5 -2.5t-9.5 -4.5q-63 -42 -119 -42q-25 0 -39 10q-10 7 -23 22.5t-24.5 25t-25.5 9.5q-11 0 -33 -15q-21 -15 -31.5 -18.5t-29.5 -3.5q-27 0 -27 19q0 2 -2.5 13.5t-2.5 19.5q0 5 4.5 13.5t9.5 8.5q2 0 18 8t24 8z" />
    <glyph glyph-name="AE" unicode="&#xc6;" horiz-adv-x="488" 
d="M383 571q-2 0 -11 -16q-97 -169 -171 -307q-90 -167 -90 -177t11 -11q12 -2 29 -2q109 0 169 -6q40 -4 42 -4q4 0 4 6v8t-0.5 18.5t-0.5 22.5q0 135 18 418q1 9 1.5 17t0.5 13t0.5 9t0.5 6v2q0 3 -3 3zM384 703q3 0 26 4.5t34 4.5q27 0 27 -7q0 -8 10 -8q6 0 6 -4v-1.5
t-0.5 -3t-0.5 -5.5t-1 -8.5t-1.5 -12t-2 -17t-2.5 -22t-3 -28t-4 -34.5q-21 -187 -21 -355q0 -71 6 -149q1 -17 10 -18q10 -1 10 -17v-27q0 -11 -7 -16q-1 -1 -10 -6t-17 -11q-10 -7 -27 -7q-28 0 -38 1q-2 0 -59.5 7t-86.5 9q-7 0 -75.5 2.5t-74.5 3.5q-10 1 -21 1h-37
q-11 0 -14 3q-10 10 -10 71q0 11 16 32q27 35 63 104q133 257 283 491q15 23 22 23z" />
    <glyph glyph-name="Ccedilla" unicode="&#xc7;" horiz-adv-x="336" 
d="M135 184q-7 16 -43 88q-3 6 -3 26q0 5 -1 12v6q0 12 12 28l67 84q30 37 33 40q7 7 19 7q27 0 27 -11q0 -3 1 -5l3 -6l4 -8q7 -16 7 -24q0 -13 -37 -46q-12 -11 -25 -25t-20 -20q-8 -7 -8 -16q0 -7 4 -20q17 -56 23 -65q4 -6 4 -16q0 -31 -4 -36q-8 -11 -13 -14
q-8 -6 -27 -6q-10 0 -12 2q-5 5 -8 15zM268 182l-50 94q-5 8 -5 28q0 3 3 9l2 7q2 7 5 14t5 10l70 88q1 1 9.5 13.5t20.5 24.5q5 5 23 5q13 0 19 -4q8 -6 12 -23q1 -3 5.5 -11.5t4.5 -12.5q0 -9 -7 -16q-11 -11 -18 -17.5t-14 -13.5l-47 -51q-7 -7 -7 -13q0 -5 2 -12
q5 -19 30 -82q2 -4 2 -13q0 -6 -1 -14q-1 -13 -18 -27q-10 -8 -19 -8q-16 0 -19 5q-1 2 -3 8.5t-5 11.5z" />
    <glyph glyph-name="Egrave" unicode="&#xc8;" horiz-adv-x="336" 
d="M197 479q14 0 17 -11l31 -116q3 -12 3 -26q0 -31 -20 -51l-105 -107q-12 -12 -24 -12t-15 3q-11 11 -11 18q0 25 11 38l74 89q8 10 8 18q0 5 -3 12l-18 48q-2 6 -4 11.5t-3 10t-2 6.5l-2 6q-3 5 -3 10q0 6 15 26.5t27 20.5q5 0 10 3t14 3zM377 319q0 -20 -21 -44l-87 -99
q-11 -12 -18.5 -15.5t-25.5 -3.5q-20 0 -20 23q0 1 -2 4.5t-2 8.5q0 7 6 14l80 97q6 8 6 14q0 3 -3 11q-6 14 -8 26q-1 4 -6 16t-6 17q-1 4 -7.5 15t-6.5 19q0 7 3 11.5t11 12.5t14 17q7 11 28 11q18 0 23 -6t15 -40l24 -79q3 -9 3 -30z" />
    <glyph glyph-name="Eacute" unicode="&#xc9;" horiz-adv-x="576" 
d="M511 96q2 -5 2 -20q0 -35 -28 -72q-7 -10 -37 -10q-40 0 -47 35q-1 5 -1 10q0 1 0.5 5t1 11t0.5 15q2 26 5 33q1 4 17 23q6 7 26 7q24 0 38.5 -6.5t22.5 -30.5zM219 55q0 6 2 17.5t11.5 30t25.5 27.5q7 4 21 4q20 0 32.5 -8t23.5 -36q2 -5 2 -11q0 -21 -8 -34l-15 -25
q-2 -10 -14 -20q-5 -4 -19 -4q-22 0 -37 7q-25 11 -25 52zM127 7q-6 -2 -12 -5.5t-11.5 -5.5t-17.5 -2q-13 0 -21.5 5t-12.5 11t-11 19q-3 6 -3 15q0 3 5 28q1 5 6 12t7 15q7 24 13.5 28.5t34.5 4.5q12 0 16.5 -2t13.5 -13q7 -10 12 -12q6 -3 6 -25q0 -34 -8 -52t-17 -21z
" />
    <glyph glyph-name="Ecircumflex" unicode="&#xca;" horiz-adv-x="205" 
 />
    <glyph glyph-name="Edieresis" unicode="&#xcb;" 
d="M167 207q15 0 69 25q8 4 18.5 8.5t22 10t14.5 6.5q5 2 6 10q36 218 36 247q0 8 -3 8q-2 0 -25 -42q-68 -126 -129 -246q-12 -24 -12 -25q0 -2 3 -2zM389 296h5q5 1 13 1.5t16 0.5q45 0 56 -19q4 -7 4 -8q0 -9 -4 -16q-7 -13 -21.5 -18.5t-44.5 -7.5q-21 -1 -30 -10
q-8 -7 -10 -27l-11 -92q0 -3 -1 -12.5t-1.5 -24.5t-1.5 -26q-1 -18 -1 -35q0 -23 2.5 -40.5t4.5 -25t2 -8.5q0 -8 -17 -25q-4 -4 -17 -4q-35 0 -48 19q-9 13 -9 71q0 40 10 136q4 38 4 46q0 3 -2 3q-3 0 -20 -7q-90 -37 -129 -45q-11 -2 -16 -15q-19 -44 -19 -106
q0 -7 0.5 -12.5t0.5 -6.5q0 -3 -5 -7l-8.5 -8.5t-14.5 -11t-17 -3.5q-12 0 -23 10q-18 15 -18 44q0 26 4 52t8.5 42t4.5 17q0 4 -4 7q-14 10 -19 15.5t-5 14.5t6 29t9 25q3 6 17 6t21.5 -5t8.5 -5q3 0 6 7q113 226 249 449q16 26 20 26q12 0 25 6t34 6q31 0 34 -10
q0 -2 2.5 -7.5t2.5 -7.5q0 -12 -14 -73q-3 -14 -5 -32t-3 -23q-7 -34 -15.5 -94.5t-13.5 -103.5t-5 -46q0 -5 3 -5zM389 874q5 0 11 -9q6 -7 31 -30l77 -69q18 -17 18 -24q0 -1 -7 -31q-3 -14 -21 -14q-19 0 -31 9l-77 67q-14 11 -51 33q-7 4 -7 17q0 27 11 41q11 13 27 13
q8 0 13 -1.5t6 -1.5z" />
    <glyph glyph-name="Igrave" unicode="&#xcc;" 
d="M167 207q15 0 69 25q8 4 18.5 8.5t22 10t14.5 6.5q5 2 6 10q36 218 36 247q0 8 -3 8q-2 0 -25 -42q-68 -126 -129 -246q-12 -24 -12 -25q0 -2 3 -2zM389 296h5q5 1 13 1.5t16 0.5q45 0 56 -19q4 -7 4 -8q0 -9 -4 -16q-7 -13 -21.5 -18.5t-44.5 -7.5q-21 -1 -30 -10
q-8 -7 -10 -27l-11 -92q0 -3 -1 -12.5t-1.5 -24.5t-1.5 -26q-1 -18 -1 -35q0 -23 2.5 -40.5t4.5 -25t2 -8.5q0 -8 -17 -25q-4 -4 -17 -4q-35 0 -48 19q-9 13 -9 71q0 40 10 136q4 38 4 46q0 3 -2 3q-3 0 -20 -7q-90 -37 -129 -45q-11 -2 -16 -15q-19 -44 -19 -106
q0 -7 0.5 -12.5t0.5 -6.5q0 -3 -5 -7l-8.5 -8.5t-14.5 -11t-17 -3.5q-12 0 -23 10q-18 15 -18 44q0 26 4 52t8.5 42t4.5 17q0 4 -4 7q-14 10 -19 15.5t-5 14.5t6 29t9 25q3 6 17 6t21.5 -5t8.5 -5q3 0 6 7q113 226 249 449q16 26 20 26q12 0 25 6t34 6q31 0 34 -10
q0 -2 2.5 -7.5t2.5 -7.5q0 -12 -14 -73q-3 -14 -5 -32t-3 -23q-7 -34 -15.5 -94.5t-13.5 -103.5t-5 -46q0 -5 3 -5zM483 794q5 0 25 8q33 13 44 13q20 0 22 -19q1 -14 1 -22q0 -4 -8 -10q-28 -20 -41 -28q-28 -16 -52 -16q-44 0 -61 46q-9 24 -14 24q-6 0 -21 -11
q-13 -9 -26 -9q-34 0 -34 14q0 8 -1.5 16.5t-1.5 15.5q0 16 7 19l52 23q23 10 43 10q29 0 45 -39q9 -24 12.5 -29.5t8.5 -5.5z" />
    <glyph glyph-name="Iacute" unicode="&#xcd;" horiz-adv-x="400" 
d="M326 546q-9 0 -53 -62q-70 -100 -101 -204q-12 -39 -14 -60q-1 -5 -3.5 -21t-4.5 -31.5t-2 -27.5q0 -46 15 -78q8 -17 24 -17q10 0 26.5 11t23.5 24q65 117 100 242q25 89 25 152q0 49 -29 64q-4 2 -4 5t-3 3zM402 600q45 -56 45 -152q0 -45 -13 -94q-56 -215 -128 -316
q-44 -62 -123 -62q-31 0 -55 10t-42 47q-19 41 -19 80q0 191 119 382q57 91 104 124q17 12 29 12q14 0 33.5 -10.5t23.5 -10.5q18 0 26 -10zM447 736q5 0 25 8q33 13 44 13q20 0 22 -19q1 -14 1 -22q0 -4 -8 -10q-28 -20 -41 -28q-28 -16 -52 -16q-44 0 -61 46q-9 24 -14 24
q-6 0 -21 -11q-13 -9 -26 -9q-34 0 -34 14q0 8 -1.5 16.5t-1.5 15.5q0 16 7 19l52 23q23 10 43 10q29 0 45 -39q9 -24 12.5 -29.5t8.5 -5.5z" />
    <glyph glyph-name="Icircumflex" unicode="&#xce;" horiz-adv-x="611" 
d="M346 560q-8 0 -21 -14q-104 -116 -153 -274q-8 -25 -10 -41q0 -3 -5 -40t-5 -57q0 -91 38 -91q7 0 23.5 11.5t21.5 19.5q39 59 81 173q5 13 5 17t-3 10q-7 13 -7 41q0 9 19 11q12 1 17 15q15 38 27.5 84t12.5 55t-3 9q-4 0 -10 4q-17 12 -17 53q0 14 -11 14zM447 369
q2 0 14 6q27 12 49 19q38 11 62 11q30 0 56 -12q9 -5 9 -12q0 -36 -16 -49q-7 -6 -24 -6q-8 0 -16 1.5t-11 1.5q-26 0 -66 -18q-52 -24 -76 -33q-11 -4 -14.5 -7.5t-7.5 -15.5q-29 -79 -64 -164q-7 -17 -7 -24q0 -8 8 -8q7 0 46.5 11t71.5 24q12 5 67 40q39 24 77 24
q16 0 27 -12t11 -22q0 -16 -12 -27q-3 -3 -40 -26q-70 -45 -154 -68t-129 -23q-28 0 -36 8q-4 4 -7 4t-10 -4q-20 -12 -69 -12q-43 0 -57 10q-59 41 -59 137q0 62 24 155q28 109 97 218q85 135 137 135q54 0 87 -19q13 -8 22 -23q3 -4 5 -4q3 0 14 5q42 20 103 37
q93 27 150 27q5 0 14.5 -1.5t24.5 -5t25 -13t10 -22.5q0 -19 -8 -35q-3 -6 -15 -6q-14 0 -24 2q-30 6 -47 6q-85 0 -191 -53q-12 -6 -15 -10t-6 -16q-1 -4 -11.5 -48t-16.5 -64q-4 -14 -4 -17q0 -2 2 -2z" />
    <glyph glyph-name="Idieresis" unicode="&#xcf;" horiz-adv-x="466" 
d="M463 450q-4 0 -17 -14q-94 -101 -129 -187q-9 -22 -9 -26q0 -2 1 -2q3 0 21 20q6 6 103 128q11 15 22 38.5t11 35.5q0 7 -3 7zM255 434q-2 0 -14 -17q-85 -123 -113 -207q-19 -57 -19 -92q0 -9 3.5 -19t8 -16.5t6.5 -6.5q3 0 19 17q23 25 69 113.5t58 152.5q4 21 4 37
q0 9 -14 22q-7 6 -7 13q0 3 -1 3zM226 70q-3 0 -8 -8q-42 -64 -85 -64q-15 0 -27 6q-46 22 -60 61q-10 29 -10 67q0 44 23 106q26 71 79 156q73 118 135 118q33 0 55 -25q14 -16 21 -36q2 -6 4 -6t9 8q52 62 121 62q49 0 59 -35q2 -8 2 -22q0 -25 -13.5 -61.5t-26.5 -54.5
q-117 -164 -202 -220q-9 -6 -9 -13q0 -17 11 -33q9 -13 18 -13q14 0 58 33q33 25 74 64.5t56 53.5q12 11 17 13t16 2q33 0 33 -17q0 -15 -8 -24q-129 -147 -208 -186q-10 -5 -29 -5q-45 0 -83 38q-13 13 -18 29q-2 6 -4 6z" />
    <glyph glyph-name="Eth" unicode="&#xd0;" horiz-adv-x="480" 
d="M464 302q2 -3 2 -8q0 -27 -10 -48q-4 -8 -18 -8h-18q-28 0 -95.5 -3.5t-97.5 -3.5q-91 0 -109 9q-14 7 -14 54q0 15 8 18q12 5 28 5q3 0 49 -4.5t77 -4.5q22 0 55.5 2t53.5 2q10 0 23.5 3t28.5 3q27 0 37 -16z" />
    <glyph glyph-name="Ntilde" unicode="&#xd1;" horiz-adv-x="544" 
d="M615 302q3 -4 3 -14q0 -24 -10 -44q-3 -6 -20 -6h-528q-19 0 -23 6q-8 13 -8 39q0 21 6 26q6 4 27 4h526q14 0 17.5 -1.5t9.5 -9.5z" />
    <glyph glyph-name="Ograve" unicode="&#xd2;" horiz-adv-x="286" 
d="M251 429l57 107q36 67 46 93q5 14 32 14q28 0 36 -11q7 -11 7 -25q0 -18 -5.5 -32t-20.5 -37t-21 -35l-56 -102q-10 -19 -38 -19q-14 0 -20.5 3t-8.5 3q-7 1 -10.5 8.5t-3.5 12.5q0 8 6 20zM143 416q-5 0 -8 3q-8 8 -8 18q0 1 2 4.5t5.5 8t4.5 7.5q34 59 59 110
q22 44 37 84q8 21 32 21q23 0 35 -21q11 -19 11 -21q0 -14 -3 -19q-28 -45 -46 -84l-49 -98q-7 -14 -23 -19q-3 -1 -14 -1q-15 0 -24.5 3.5t-10.5 3.5z" />
    <glyph glyph-name="Oacute" unicode="&#xd3;" horiz-adv-x="286" 
d="M251 429l57 107q36 67 46 93q5 14 32 14q28 0 36 -11q7 -11 7 -25q0 -18 -5.5 -32t-20.5 -37t-21 -35l-56 -102q-10 -19 -38 -19q-14 0 -20.5 3t-8.5 3q-7 1 -10.5 8.5t-3.5 12.5q0 8 6 20zM143 416q-5 0 -8 3q-8 8 -8 18q0 1 2 4.5t5.5 8t4.5 7.5q34 59 59 110
q22 44 37 84q8 21 32 21q23 0 35 -21q11 -19 11 -21q0 -14 -3 -19q-28 -45 -46 -84l-49 -98q-7 -14 -23 -19q-3 -1 -14 -1q-15 0 -24.5 3.5t-10.5 3.5z" />
    <glyph glyph-name="Ocircumflex" unicode="&#xd4;" horiz-adv-x="162" 
d="M125 429l57 107q36 67 46 93q5 14 32 14q28 0 36 -11q7 -11 7 -25q0 -18 -5.5 -32t-20.5 -37t-21 -35l-56 -102q-10 -19 -38 -19q-14 0 -20.5 3t-8.5 3q-7 1 -10.5 8.5t-3.5 12.5q0 8 6 20z" />
    <glyph glyph-name="Otilde" unicode="&#xd5;" horiz-adv-x="162" 
d="M125 429l57 107q36 67 46 93q5 14 32 14q28 0 36 -11q7 -11 7 -25q0 -18 -5.5 -32t-20.5 -37t-21 -35l-56 -102q-10 -19 -38 -19q-14 0 -20.5 3t-8.5 3q-7 1 -10.5 8.5t-3.5 12.5q0 8 6 20z" />
    <glyph glyph-name="Odieresis" unicode="&#xd6;" horiz-adv-x="480" 
d="M258 167q1 -1 5.5 -7t8.5 -9q15 -14 15 -49q0 -36 -14 -50q-12 -12 -42 -12q-14 0 -24 5q-4 2 -5 3.5t-2.5 5.5t-4.5 8t-6.5 8.5t-6 7.5t-4 7t-1.5 8q0 28 14 57t36 29q19 0 31 -12zM318 508q17 0 36 -18t19 -29q0 -10 -4 -30t-18 -43t-34 -23q-12 0 -37 13
q-24 13 -24 32q0 12 4 26t7.5 23t10.5 22.5t9 17.5q3 6 8 7.5t23 1.5zM463 302q2 -3 2 -8q0 -29 -9 -48q-4 -9 -18 -9l-8 1q-8 1 -14 1q-5 0 -80 -4t-109 -4q-24 0 -90 6q-15 1 -21 3q-12 4 -12 54q0 15 8 18q12 5 28 5q3 0 49 -4.5t77 -4.5q16 0 74 4.5t96 4.5
q11 0 16 -2.5t11 -12.5z" />
    <glyph glyph-name="multiply" unicode="&#xd7;" horiz-adv-x="480" 
d="M236 69q4 0 25 31q4 5 15 20.5t20.5 29.5t14.5 22q19 31 46.5 74t34.5 54q14 23 14 35q0 5 -2 22q-13 119 -18 200q-1 18 -1 25q0 3 -2 3q-1 0 -16 -22q-1 -2 -58 -79t-95 -141q-10 -17 -10 -29q0 -6 2 -19q14 -89 27 -214q1 -12 3 -12zM364 683q4 0 22.5 4t36.5 4
q21 0 29 -10q4 -6 12 -6q5 0 5 -6l-1 -5v-17v-25q0 -62 3 -95q18 -196 18 -214t-10 -39t-18 -30q-14 -17 -37 -49.5t-65.5 -97t-63.5 -96.5q-16 -24 -30 -24h-11q-5 0 -10.5 -4.5t-18.5 -4.5q-41 0 -57 6q-17 6 -17 21q0 3 1.5 27t1.5 26q0 20 -5 50q-21 129 -25 191
q-1 12 -9 24q-4 6 -4 14q0 24 30 64q3 4 15.5 14.5t16.5 16.5q39 61 161 231q16 22 20 26t10 4z" />
    <glyph glyph-name="Oslash" unicode="&#xd8;" horiz-adv-x="357" 
d="M267 -7q22 0 22 -11q0 -14 -8 -26q-77 -116 -115 -281q-14 -60 -16 -65q-14 -36 -41 -41q-1 0 -12 -3.5t-18 -3.5q-35 0 -35 32q0 36 21 87q41 98 80 171q4 25 62 200q13 40 13 41q0 2 -2 2q-1 0 -4 -3q-9 -8 -41 -36q-22 -18 -29 -22t-17 -4q-55 0 -80 42q-5 8 -5 13
q0 35 14 99q11 50 47.5 146t46.5 128q9 30 40 30q4 0 12 -3t13 -3q9 0 14 -4t6.5 -7.5t1.5 -6.5q0 -23 -9 -42q-12 -24 -16 -28q-6 -6 -9 -13q-15 -34 -26 -66t-23.5 -71.5t-21.5 -66.5q-14 -40 -14 -67q0 -8 3 -8q2 0 13.5 8t28 24.5t28.5 33.5q3 4 14 17t18 23
q5 7 22.5 28.5t29 37.5t29.5 51.5t35 79.5q5 16 14 25q5 5 17 5q8 0 14 -3.5t14 -3.5q20 0 26 -13q3 -6 3 -19q0 -22 -22 -55q-6 -9 -10.5 -18.5t-6.5 -11.5q-30 -48 -57 -128q-3 -10 -26.5 -73.5t-27.5 -76.5q-3 -10 -8 -25q-4 -12 -4 -13q0 -2 2 -2zM284 663q33 0 38 -14
q7 -19 7 -28q0 -12 -3 -20t-9 -17t-9 -15q-7 -17 -37 -17q-14 0 -18.5 0.5t-7 2.5t-5.5 7q-8 17 -8 19q0 17 1 25q2 18 13 40q8 17 38 17zM466 592q0 -3 3.5 -15t3.5 -18q0 -11 -9 -29q-10 -20 -17 -23.5t-31 -3.5q-13 0 -18.5 3.5t-9.5 16.5q-1 3 -6.5 14t-5.5 20
q0 11 7 29q7 17 12 21t17 4q2 0 8.5 -0.5t10.5 -0.5q33 0 35 -18z" />
    <glyph glyph-name="Ugrave" unicode="&#xd9;" horiz-adv-x="410" 
d="M188 239q8 0 16 6q60 45 97 87q44 51 99 165q49 100 57 110t19 10q39 0 54 -22q6 -9 6 -30q0 -3 -13 -24q-176 -283 -276 -851q-1 -7 -3 -14l-3 -10.5t-1 -4.5q0 -5 -0.5 -6.5t-3.5 -2.5t-9 -1q-4 0 -8 0.5t-6 1t-5.5 1.5t-7.5 2q-15 2 -25.5 10t-11.5 17t-1 23
q0 28 20 101q3 11 19 83q29 130 88 322q-42 -44 -100 -44q-14 0 -29 11q-16 11 -31 29q-27 32 -27 54q0 40 10 110q1 4 3.5 15t3.5 22q1 7 4.5 20t5.5 24q23 115 53 214q2 7 4 8.5t10 1.5q17 0 38 -5l20 -5q2 0 5 -7.5t3 -14.5q0 -14 -3 -24t-9 -24t-10 -32
q-46 -191 -56 -287q-3 -27 -3 -31q0 -8 7 -8zM342 833q33 0 38 -14q7 -19 7 -28q0 -12 -3 -20t-9 -17t-9 -15q-7 -17 -37 -17q-14 0 -18.5 0.5t-7 2.5t-5.5 7q-8 17 -8 19q0 17 1 25q2 17 13 40q8 17 38 17zM524 762q0 -3 3.5 -15t3.5 -18q0 -11 -9 -29q-10 -20 -17 -23.5
t-31 -3.5q-13 0 -18.5 3.5t-9.5 16.5q-1 3 -6.5 14t-5.5 20q0 11 7 29q7 17 12 21t17 4q2 0 8.5 -0.5t10.5 -0.5q33 0 35 -18z" />
    <glyph glyph-name="Uacute" unicode="&#xda;" horiz-adv-x="272" 
d="M435 662q5 -6 5 -28q0 -24 -8 -29q-6 -4 -14 -13q-8 -11 -18 -18.5t-14 -13.5q-64 -96 -163.5 -273.5t-124.5 -219.5q-27 -45 -45 -70q-15 -20 -19.5 -23.5t-15.5 -3.5q-24 0 -30 8q-11 13 -11 22q0 38 11 42q10 4 45 63l275 469q35 59 63 87q14 14 34 14q18 0 30 -13z
" />
    <glyph glyph-name="Ucircumflex" unicode="&#xdb;" horiz-adv-x="414" 
d="M235 181q7 0 13 4q10 6 17 12t14 15l10.5 13.5t12.5 19.5t14 23q24 38 24 84q0 10 -7 19q-4 5 -10 13q-5 8 -5 16q0 9 -5 13q-9 6 -20 6q-5 0 -19.5 -16.5t-31.5 -43.5q-19 -30 -29.5 -64.5t-10.5 -53.5q0 -8 5 -9q5 -2 10 -16q4 -12 4 -19t5 -12q4 -4 9 -4zM276 136
q-2 0 -10 -2q-16 -4 -36 -4q-28 0 -44 9q-4 2 -6 2t-8 -7q-12 -14 -21 -24q-4 -5 -37 -39.5t-40 -39.5q-8 -5 -17 -5q-16 0 -20.5 2t-10.5 9q-8 10 -8 15q0 6 7 26.5t15 22.5q11 3 58 56l27 31q7 8 7 13q0 3 -1 6q-7 21 -7 55t21 86q15 37 45 76q7 9 7 12t-2 10
q-18 63 -18 106q0 22 8 38q13 25 37 25q9 0 23 -9t14 -22q0 -10 0.5 -24.5t0.5 -17.5q0 -1 -0.5 -9t-0.5 -10q0 -12 8 -46q1 -5 3 -5l4 1q3 1 10 1.5t17 0.5q30 0 49 -10q6 -3 7 -3q3 0 11 10q32 42 83 87q13 11 36 11q12 0 21 -9q7 -7 7 -18q0 -10 -6.5 -28t-11.5 -21
q-1 -1 -7 -3.5t-9 -6.5q-1 -1 -9 -7t-23 -19.5t-33 -31.5q-9 -9 -9 -12t3 -11q7 -20 7 -37q0 -16 -4 -44q-12 -79 -55 -134q-9 -12 -9 -15q0 -4 1 -8q5 -20 10 -46t8 -39t7 -17q6 -6 6 -19q0 -12 -28 -30q-6 -4 -19 -4q-14 0 -24 7q-16 11 -16 31q0 16 -13 74q-3 14 -5 14z
" />
    <glyph glyph-name="Udieresis" unicode="&#xdc;" horiz-adv-x="212" 
d="M135 184q-7 16 -43 88q-3 6 -3 26q0 5 -1 12v6q0 12 12 28l67 84q30 37 33 40q7 7 19 7q27 0 27 -11q0 -3 1 -5l3 -6l4 -8q7 -16 7 -24q0 -13 -37 -46q-12 -11 -25 -25t-20 -20q-8 -7 -8 -16q0 -7 4 -20q17 -56 23 -65q4 -6 4 -16q0 -31 -4 -36q-8 -11 -13 -14
q-8 -6 -27 -6q-10 0 -12 2q-5 5 -8 15z" />
    <glyph glyph-name="Yacute" unicode="&#xdd;" horiz-adv-x="212" 
d="M250 319q0 -20 -21 -44l-87 -99q-11 -12 -18.5 -15.5t-25.5 -3.5q-20 0 -20 23q0 1 -2 4.5t-2 8.5q0 7 6 14l80 97q6 8 6 14q0 3 -3 11q-6 14 -8 26q-1 4 -6 16t-6 17q-1 4 -7.5 15t-6.5 19q0 7 3 11.5t11 12.5t14 17q7 11 28 11q17 0 22.5 -6t15.5 -40l24 -79
q3 -9 3 -30z" />
    <glyph glyph-name="Thorn" unicode="&#xde;" horiz-adv-x="406" 
d="M329 320q5 14 5 15q0 2 -2 2q-3 0 -21 -9q-12 -6 -57 -24t-53 -26q-5 -5 -11 -21q-31 -86 -47 -134t-36 -125t-30 -146q-1 -9 -9 -17.5t-14 -10.5l-14 -6q-13 -7 -21 -7q-12 0 -18 6q-1 1 -4 3.5t-4 3.5t-2 4t-1.5 8t-0.5 13q0 34 16.5 82.5t22.5 79.5q4 20 43 138
t39 125q0 10 -14 28.5t-18 33.5q-5 17 -5 28q0 6 5 14q4 6 15 6q14 0 27 -6.5t17 -6.5q7 0 12 13q93 232 151 335q13 23 50 23q25 0 34 -18q6 -10 6 -19q0 -12 -14 -32t-15 -27q-2 -12 -5 -18q-8 -18 -47 -75t-49 -94q-2 -6 -6 -16t-6 -14q-22 -55 -22 -59q0 -3 4 -3
q11 0 53 19q60 28 76.5 39.5t27.5 33.5q13 28 50 28q24 0 32 -8q5 -5 5 -12q0 -24 -9.5 -44.5t-25.5 -44.5t-24 -42q-26 -61 -57 -142q-27 -73 -27 -110q0 -18 7 -18q15 0 51 32q26 23 46 23q33 0 33 -19q0 -12 -15 -29l-36 -39q-45 -48 -94 -48q-27 0 -45.5 31.5
t-18.5 61.5q0 63 19 109q4 10 9.5 27.5t7.5 22.5zM571 665q0 -18 -6 -26l-20 -26q-18 -23 -37 -23q-25 0 -36 8t-11 35q0 39 14.5 55t46.5 16q49 0 49 -39z" />
    <glyph glyph-name="germandbls" unicode="&#xdf;" 
d="M303 324q-22 -10 -49 -20q-42 -15 -53 -26q-5 -5 -11 -21q-31 -86 -47 -134t-36 -125t-30 -146q-1 -9 -9 -17.5t-14 -10.5l-14 -6q-13 -7 -21 -7q-12 0 -18 6q-1 1 -4 3.5t-4 3.5t-2 4t-1.5 8t-0.5 13q0 34 16.5 82.5t22.5 79.5q4 20 43 138t39 125q0 10 -14 28.5
t-18 33.5q-5 17 -5 28q0 6 5 14q4 6 15 6q14 0 27 -6.5t17 -6.5q7 0 12 13q93 232 151 335q13 23 50 23q25 0 34 -18q6 -10 6 -19q0 -29 -16 -56q-8 -13 -29.5 -44.5t-43.5 -68.5t-42 -80q-4 -9 -11 -27q-22 -55 -22 -59q0 -3 4 -3q14 0 67 25q38 18 57.5 35t46.5 60.5
t77 143.5q7 14 16.5 36.5t12.5 28.5q8 16 15 23t23 9q27 3 30 3q21 0 28 -13q4 -8 4 -23q0 -23 -19 -56q-20 -34 -60 -101.5t-63.5 -107.5t-52.5 -99t-49 -111q-4 -12 -10 -26.5t-9.5 -24.5t-7.5 -21q-12 -35 -12 -71q0 -27 10 -27q4 0 13 8q7 7 52 59q13 16 20.5 23.5
t20.5 15.5t26 8t23 -6q11 -7 11 -18q0 -5 -2.5 -9t-8 -9.5l-8.5 -8.5q-12 -15 -34 -46.5t-30 -39.5q-41 -45 -88 -45q-19 0 -45 18q-20 14 -30 34q-7 14 -7 44q0 27 8 58q10 39 36 105q22 56 30 73q6 12 6 16q0 2 -2 2q-4 0 -22 -8z" />
    <glyph glyph-name="agrave" unicode="&#xe0;" horiz-adv-x="464" 
d="M303 247q25 0 61.5 5t47.5 5h4q20 0 27 -10q7 -9 7 -21q0 -2 -2 -7t-4.5 -12t-3.5 -10q-5 -14 -5 -17q0 -7 -7 -7h-30q-16 0 -40 -1.5t-33 -1.5q-25 0 -47 -6q-8 -2 -39 -95q-2 -7 -9.5 -33t-16 -53.5t-15.5 -43.5q-4 -11 -23 -11q-16 0 -19 11q-4 16 -16 16q-8 0 -8 16
q0 13 18 65q4 10 10.5 39t11.5 41q9 24 9 31q0 8 -6 8h-17q-24 0 -46 2.5t-32 2.5q-18 0 -20 10q-2 8 -2 25q0 11 1 19q2 9 5 13.5t4 8.5q2 8 23 8q10 0 37 -4l26 -3q13 -1 37 -1q13 0 17 4q5 5 15 40l20 65q10 33 10 38q0 7 -6 7q-16 0 -30 1q-72 5 -78 11q-5 5 -5 30
q0 34 4 37q2 1 4.5 5.5t7.5 6.5t17 2q5 0 12.5 -2t15.5 -3l44 -4q27 -3 32 -3q11 0 14 3q4 4 16 38l31 89q6 18 18 45q5 10 15 10q7 0 16 5.5t21 5.5q15 0 27 -8q7 -5 7 -14q0 -3 0.5 -5.5t0.5 -3.5q0 -6 -2 -13l-12 -40q-2 -7 -13 -24q-9 -12 -24 -53q-6 -16 -6 -20t3 -4
q19 0 70 11q11 2 30 2q28 0 37.5 -4t9.5 -17q0 -17 -7.5 -34.5t-7.5 -18.5q0 -7 -9 -7h-9q-1 0 -91 -9q-45 -5 -53 -7t-17 -28q-20 -57 -23 -67q-14 -51 -14 -52q0 -4 4 -4z" />
    <glyph glyph-name="aacute" unicode="&#xe1;" horiz-adv-x="283" 
d="M206 354q26 0 37 -15t11 -33q0 -26 -5 -40q-7 -21 -13 -33t-19.5 -22t-31.5 -10q-23 0 -41.5 8t-21.5 21q-2 10 -2 22q0 19 4 46t9 33q21 23 73 23z" />
    <glyph glyph-name="acircumflex" unicode="&#xe2;" horiz-adv-x="162" 
d="M-54 -106l57 107q36 67 46 93q5 14 32 14q28 0 36 -11q7 -11 7 -25q0 -18 -5.5 -32t-20.5 -37t-21 -35l-56 -102q-10 -19 -38 -19q-14 0 -20.5 3t-8.5 3q-7 1 -10.5 8t-3.5 13q0 8 6 20z" />
    <glyph glyph-name="atilde" unicode="&#xe3;" horiz-adv-x="286" 
d="M69 -113l57 107q36 67 46 93q5 14 32 14q28 0 36 -11q7 -10 7 -25q0 -18 -5.5 -32t-20.5 -37t-21 -35l-56 -102q-10 -19 -38 -19q-14 0 -20.5 3t-8.5 3q-7 1 -10.5 8.5t-3.5 12.5q0 8 6 20zM-39 -126q-5 0 -8 3q-8 8 -8 18q0 1 2 4.5t5.5 8t4.5 7.5q34 59 59 110
q22 44 37 84q8 21 32 21q23 0 35 -21q11 -19 11 -21q0 -14 -3 -19q-28 -45 -46 -84l-49 -98q-7 -14 -23 -19q-3 -1 -14 -1q-15 0 -24.5 3.5t-10.5 3.5z" />
    <glyph glyph-name="adieresis" unicode="&#xe4;" horiz-adv-x="880" 
d="M765 259q-9 0 -27 -38q-45 -93 -45 -147q0 -18 6 -29q5 -10 11 -10q4 0 15 11q8 8 15 25q10 24 21.5 47.5t16.5 34.5t8.5 24.5t3.5 29.5q0 25 -8 28q-11 5 -13 17q-1 7 -4 7zM516 268q-4 0 -14 -17q-65 -109 -65 -174q0 -19 6.5 -31.5t13.5 -12.5q10 0 26 34
q54 112 54 159q0 18 -7.5 30t-13.5 12zM299 609q-6 0 -17 -19q-22 -39 -31 -56.5t-21 -50.5t-12 -57q0 -54 21 -54q6 0 24 31q40 70 50 117q6 28 6 41q0 21 -7 23q-10 3 -10 18q0 7 -3 7zM810 300q21 -5 39 -29.5t18 -56.5q0 -43 -14 -88q-17 -54 -54 -108q-21 -31 -77 -31
q-48 0 -77 27q-10 9 -20.5 32t-10.5 45q0 59 38 133q25 49 55 76q17 15 59 15q17 0 23 -2t10 -6.5t11 -6.5zM565 308q18 -9 33.5 -32.5t15.5 -53.5q0 -86 -58 -184q-30 -51 -95 -51q-55 0 -79 37t-24 64q0 56 41 143q28 59 65 79q16 9 37 9q40 0 64 -11zM610 630
q0 -37 -8 -40q-10 -4 -15 -12q-8 -11 -19 -20t-13 -12q-46 -69 -89 -144t-95 -170t-90 -160q-10 -17 -44 -69q-9 -13 -19 -23q-4 -4 -16 -4q-25 0 -34 8q-11 11 -11 21q0 41 16 50q15 8 46 63l252 442q17 31 55 78q20 23 42 23q16 0 23 -4q19 -12 19 -27zM359 637
q37 -11 37 -79q0 -11 -3.5 -35t-19.5 -71t-42 -82q-37 -51 -85 -51q-36 0 -53 13.5t-35 44.5t-18 70q0 45 39 123q45 89 117 89q8 0 23 -4q10 -3 21 -9.5t19 -8.5z" />
    <glyph glyph-name="aring" unicode="&#xe5;" 
d="M167 207q15 0 69 25q8 4 18.5 8.5t22 10t14.5 6.5q5 2 6 10q36 218 36 247q0 8 -3 8q-2 0 -25 -42q-68 -126 -129 -246q-12 -24 -12 -25q0 -2 3 -2zM389 296h5q5 1 13 1.5t16 0.5q45 0 56 -19q4 -7 4 -8q0 -9 -4 -16q-7 -13 -21.5 -18.5t-44.5 -7.5q-21 -1 -30 -10
q-8 -7 -10 -27l-11 -92q0 -3 -1 -12.5t-1.5 -24.5t-1.5 -26q-1 -18 -1 -35q0 -23 2.5 -40.5t4.5 -25t2 -8.5q0 -8 -17 -25q-4 -4 -17 -4q-35 0 -48 19q-9 13 -9 71q0 40 10 136q4 38 4 46q0 3 -2 3q-3 0 -20 -7q-90 -37 -129 -45q-11 -2 -16 -15q-19 -44 -19 -106
q0 -7 0.5 -12.5t0.5 -6.5q0 -3 -5 -7l-8.5 -8.5t-14.5 -11t-17 -3.5q-12 0 -23 10q-18 15 -18 44q0 26 4 52t8.5 42t4.5 17q0 4 -4 7q-14 10 -19 15.5t-5 14.5t6 29t9 25q3 6 17 6t21.5 -5t8.5 -5q3 0 6 7q113 226 249 449q16 26 20 26q12 0 25 6t34 6q31 0 34 -10
q0 -2 2.5 -7.5t2.5 -7.5q0 -12 -14 -73q-3 -14 -5 -32t-3 -23q-7 -34 -15.5 -94.5t-13.5 -103.5t-5 -46q0 -5 3 -5zM438 781q-4 0 -16 -6q-56 -28 -66 -38q-3 -3 -15 -3q-17 0 -23 10q-6 9 -6 14q0 20 5 33q0 1 7 11q5 8 46 25l73 31q7 3 19 3q19 0 23 -9l3.5 -3.5t4.5 -7.5
l41 -103q6 -15 6 -23q0 -5 -1 -8t-2.5 -4.5l-4 -4t-3.5 -4.5q-6 -11 -23 -11q-16 0 -23 14l-38 74q-5 10 -7 10z" />
    <glyph glyph-name="ae" unicode="&#xe6;" horiz-adv-x="414" 
d="M175 490q-16 0 -23 4t-12.5 21t-5.5 29q0 5 6 7l15 5q37 13 133 56q36 17 103 34.5t126 17.5q25 0 39 -11q31 -24 31 -46q0 -19 -14 -19q-4 0 -9.5 -3t-15.5 -3q-13 0 -20.5 5t-18.5 5q-75 0 -181 -44q-9 -4 -12 -6.5t-6 -10.5q-4 -10 -41 -106q-10 -26 -10 -27
q0 -2 2 -2q1 0 13 6q16 8 43 17t55 9q38 0 66 -21q9 -6 9 -24q0 -10 -5 -15t-22 -10q-6 -2 -25 -2q-11 0 -16.5 1t-10.5 1q-19 0 -68 -21q-57 -24 -73 -30q-7 -2 -12 -14q-75 -163 -75 -220q0 -11 4.5 -19.5t8.5 -8.5q24 0 56 17q17 9 29.5 15t18.5 8.5t8 3.5q4 2 65 45
q41 28 78 28q11 0 16 -6l9.5 -9.5t9 -10.5t2.5 -9q0 -9 -6 -12q-13 -6 -19 -14q-9 -11 -27 -23q-67 -46 -115 -66q-78 -32 -153 -32q-16 0 -35 11q-25 14 -32 30q-4 8 -4 31q0 7 1 20q2 29 9.5 61.5t15 53.5t21 57.5t19.5 52.5q-8 14 -8 32q0 8 3 13q2 4 23 11q10 3 14 14
q1 2 19 45.5t24 62.5q4 13 4 15t-2 2h-2q-2 -1 -7 -1.5t-13 -0.5zM389 768q-3 0 -12 -8q-65 -55 -73 -68q-6 -8 -19 -8q-6 0 -9.5 0.5t-5.5 1t-3 1.5t-2 2.5t-3 2.5q-12 8 -12 23q0 17 3 26q0 1 3 4.5t5 7.5q3 5 48 40l73 57q12 9 26 9q15 0 17 -3q1 -1 3.5 -3t4.5 -7
l43 -88q7 -15 7 -23q0 -4 -1.5 -7.5t-4 -7.5t-3.5 -6q-5 -12 -22 -12q-15 0 -22 10l-34 49q-5 7 -7 7z" />
    <glyph glyph-name="ccedilla" unicode="&#xe7;" 
d="M167 207q15 0 69 25q8 4 18.5 8.5t22 10t14.5 6.5q5 2 6 10q36 218 36 247q0 8 -3 8q-2 0 -25 -42q-68 -126 -129 -246q-12 -24 -12 -25q0 -2 3 -2zM389 296h5q5 1 13 1.5t16 0.5q45 0 56 -19q4 -7 4 -8q0 -9 -4 -16q-7 -13 -21.5 -18.5t-44.5 -7.5q-21 -1 -30 -10
q-8 -7 -10 -27l-11 -92q0 -3 -1 -12.5t-1.5 -24.5t-1.5 -26q-1 -18 -1 -35q0 -23 2.5 -40.5t4.5 -25t2 -8.5q0 -8 -17 -25q-4 -4 -17 -4q-35 0 -48 19q-9 13 -9 71q0 40 10 136q4 38 4 46q0 3 -2 3q-3 0 -20 -7q-90 -37 -129 -45q-11 -2 -16 -15q-19 -44 -19 -106
q0 -7 0.5 -12.5t0.5 -6.5q0 -3 -5 -7l-8.5 -8.5t-14.5 -11t-17 -3.5q-12 0 -23 10q-18 15 -18 44q0 26 4 52t8.5 42t4.5 17q0 4 -4 7q-14 10 -19 15.5t-5 14.5t6 29t9 25q3 6 17 6t21.5 -5t8.5 -5q3 0 6 7q113 226 249 449q16 26 20 26q12 0 25 6t34 6q31 0 34 -10
q0 -2 2.5 -7.5t2.5 -7.5q0 -12 -14 -73q-3 -14 -5 -32t-3 -23q-7 -34 -15.5 -94.5t-13.5 -103.5t-5 -46q0 -5 3 -5zM305 790q6 0 20 7l74 34q33 16 59 33q9 6 24 6q14 0 23 -9q7 -7 7 -16q0 -27 -7 -38q-9 -12 -59 -31l-92 -35q-14 -5 -28 -5q-13 0 -17.5 3.5t-14.5 18.5
q-5 8 -5 13q0 2 1 6t5 8.5t10 4.5z" />
    <glyph glyph-name="egrave" unicode="&#xe8;" horiz-adv-x="414" 
d="M175 490q-16 0 -23 4t-12.5 21t-5.5 29q0 5 6 7l15 5q37 13 133 56q36 17 103 34.5t126 17.5q25 0 39 -11q31 -24 31 -46q0 -19 -14 -19q-4 0 -9.5 -3t-15.5 -3q-13 0 -20.5 5t-18.5 5q-75 0 -181 -44q-9 -4 -12 -6.5t-6 -10.5q-4 -10 -41 -106q-10 -26 -10 -27
q0 -2 2 -2q1 0 13 6q16 8 43 17t55 9q38 0 66 -21q9 -6 9 -24q0 -10 -5 -15t-22 -10q-6 -2 -25 -2q-11 0 -16.5 1t-10.5 1q-19 0 -68 -21q-57 -24 -73 -30q-7 -2 -12 -14q-75 -163 -75 -220q0 -11 4.5 -19.5t8.5 -8.5q24 0 56 17q17 9 29.5 15t18.5 8.5t8 3.5q4 2 65 45
q41 28 78 28q11 0 16 -6l9.5 -9.5t9 -10.5t2.5 -9q0 -9 -6 -12q-13 -6 -19 -14q-9 -11 -27 -23q-67 -46 -115 -66q-78 -32 -153 -32q-16 0 -35 11q-25 14 -32 30q-4 8 -4 31q0 7 1 20q2 29 9.5 61.5t15 53.5t21 57.5t19.5 52.5q-8 14 -8 32q0 8 3 13q2 4 23 11q10 3 14 14
q1 2 19 45.5t24 62.5q4 13 4 15t-2 2h-2q-2 -1 -7 -1.5t-13 -0.5zM302 833q33 0 38 -14q7 -19 7 -28q0 -12 -3 -20t-9 -17t-9 -15q-7 -17 -37 -17q-14 0 -18.5 0.5t-7 2.5t-5.5 7q-8 17 -8 19q0 17 1 25q2 17 13 40q8 17 38 17zM499 805q0 -3 3.5 -15t3.5 -18q0 -11 -9 -29
q-10 -20 -17.5 -23.5t-30.5 -3.5q-13 0 -18.5 3.5t-9.5 16.5q-1 3 -6.5 14t-5.5 20q0 12 7 29t12 21t17 4q2 0 8.5 -0.5t10.5 -0.5q33 0 35 -18z" />
    <glyph glyph-name="eacute" unicode="&#xe9;" horiz-adv-x="414" 
d="M175 490q-16 0 -23 4t-12.5 21t-5.5 29q0 5 6 7l15 5q37 13 133 56q36 17 103 34.5t126 17.5q25 0 39 -11q31 -24 31 -46q0 -19 -14 -19q-4 0 -9.5 -3t-15.5 -3q-13 0 -20.5 5t-18.5 5q-75 0 -181 -44q-9 -4 -12 -6.5t-6 -10.5q-4 -10 -41 -106q-10 -26 -10 -27
q0 -2 2 -2q1 0 13 6q16 8 43 17t55 9q38 0 66 -21q9 -6 9 -24q0 -10 -5 -15t-22 -10q-6 -2 -25 -2q-11 0 -16.5 1t-10.5 1q-19 0 -68 -21q-57 -24 -73 -30q-7 -2 -12 -14q-75 -163 -75 -220q0 -11 4.5 -19.5t8.5 -8.5q24 0 56 17q17 9 29.5 15t18.5 8.5t8 3.5q4 2 65 45
q41 28 78 28q11 0 16 -6l9.5 -9.5t9 -10.5t2.5 -9q0 -9 -6 -12q-13 -6 -19 -14q-9 -11 -27 -23q-67 -46 -115 -66q-78 -32 -153 -32q-16 0 -35 11q-25 14 -32 30q-4 8 -4 31q0 7 1 20q2 29 9.5 61.5t15 53.5t21 57.5t19.5 52.5q-8 14 -8 32q0 8 3 13q2 4 23 11q10 3 14 14
q1 2 19 45.5t24 62.5q4 13 4 15t-2 2h-2q-2 -1 -7 -1.5t-13 -0.5zM297 868q5 0 11 -9q6 -7 31 -30l77 -69q18 -16 18 -24q0 -1 -7 -31q-3 -14 -21 -14q-19 0 -31 9l-77 67q-14 11 -51 33q-7 4 -7 17q0 27 11 41q11 13 27 13q8 0 13 -1.5t6 -1.5z" />
    <glyph glyph-name="ecircumflex" unicode="&#xea;" horiz-adv-x="211" 
d="M99 -26q-6 0 -12.5 -9.5t-14.5 -9.5q-6 0 -10 4.5t-10 5.5q-9 2 -15.5 8.5t-8.5 7.5q-5 1 -5 5q0 6 7.5 35.5t13.5 40.5q4 8 8 23q19 71 42 141.5t54.5 162t46.5 137.5q3 9 14.5 34t23.5 65q4 13 42 13q19 0 35 -9t16 -20q0 -41 -29 -70q-3 -3 -11 -24
q-39 -102 -151 -437q-7 -21 -7 -25v-10q0 -14 -16 -60q-3 -9 -13 -9zM269 744q6 0 20 7l74 34q33 16 59 33q9 6 24 6q14 0 23 -9q7 -7 7 -16q0 -28 -7 -38q-9 -12 -59 -31l-92 -35q-14 -5 -28 -5q-13 0 -17.5 3.5t-14.5 18.5q-5 8 -5 13q0 2 1 6t5 8.5t10 4.5z" />
    <glyph glyph-name="edieresis" unicode="&#xeb;" horiz-adv-x="211" 
d="M99 -26q-6 0 -12.5 -9.5t-14.5 -9.5q-6 0 -10 4.5t-10 5.5q-9 2 -15.5 8.5t-8.5 7.5q-5 1 -5 5q0 6 7.5 35.5t13.5 40.5q4 8 8 23q19 71 42 141.5t54.5 162t46.5 137.5q3 9 14.5 34t23.5 65q4 13 42 13q19 0 35 -9t16 -20q0 -41 -29 -70q-3 -3 -11 -24
q-39 -102 -151 -437q-7 -21 -7 -25v-10q0 -14 -16 -60q-3 -9 -13 -9zM324 761q-4 0 -16 -6q-56 -28 -66 -38q-3 -3 -15 -3q-17 0 -23 10q-6 9 -6 14q0 20 5 33q0 1 7 11q5 8 46 25l73 31q7 3 19 3q19 0 23 -9l3.5 -3.5t4.5 -7.5l41 -103q6 -15 6 -23q0 -5 -1 -8t-2.5 -4.5
l-4 -4t-3.5 -4.5q-6 -11 -23 -11q-16 0 -23 14l-38 74q-5 10 -7 10z" />
    <glyph glyph-name="igrave" unicode="&#xec;" horiz-adv-x="211" 
d="M99 -26q-6 0 -12.5 -9.5t-14.5 -9.5q-6 0 -10 4.5t-10 5.5q-9 2 -15.5 8.5t-8.5 7.5q-5 1 -5 5q0 6 7.5 35.5t13.5 40.5q4 8 8 23q19 71 42 141.5t54.5 162t46.5 137.5q3 9 14.5 34t23.5 65q4 13 42 13q19 0 35 -9t16 -20q0 -41 -29 -70q-3 -3 -11 -24
q-39 -102 -151 -437q-7 -21 -7 -25v-10q0 -14 -16 -60q-3 -9 -13 -9zM246 829q33 0 38 -14q7 -19 7 -28q0 -12 -3 -20t-9 -17t-9 -15q-7 -17 -37 -17q-14 0 -18.5 0.5t-7 2.5t-5.5 7q-8 17 -8 19q0 17 1 25q2 18 13 40q8 17 38 17zM428 758q0 -3 3.5 -15t3.5 -18
q0 -11 -9 -29q-10 -20 -17 -23.5t-31 -3.5q-13 0 -18.5 3.5t-9.5 16.5q-1 3 -6.5 14t-5.5 20q0 11 7 29q7 17 12 21t17 4q2 0 8.5 -0.5t10.5 -0.5q33 0 35 -18z" />
    <glyph glyph-name="iacute" unicode="&#xed;" horiz-adv-x="211" 
d="M99 -26q-6 0 -12.5 -9.5t-14.5 -9.5q-6 0 -10 4.5t-10 5.5q-9 2 -15.5 8.5t-8.5 7.5q-5 1 -5 5q0 6 7.5 35.5t13.5 40.5q4 8 8 23q19 71 42 141.5t54.5 162t46.5 137.5q3 9 14.5 34t23.5 65q4 13 42 13q19 0 35 -9t16 -20q0 -41 -29 -70q-3 -3 -11 -24
q-39 -102 -151 -437q-7 -21 -7 -25v-10q0 -14 -16 -60q-3 -9 -13 -9zM227 844q5 0 11 -9q6 -7 31 -30l77 -69q18 -16 18 -24q0 -1 -7 -31q-3 -14 -21 -14q-19 0 -31 9l-77 67q-14 11 -51 33q-7 4 -7 17q0 27 11 41q11 13 27 13q8 0 13 -1.5t6 -1.5z" />
    <glyph glyph-name="icircumflex" unicode="&#xee;" horiz-adv-x="400" 
d="M326 546q-9 0 -53 -62q-70 -100 -101 -204q-12 -39 -14 -60q-1 -5 -3.5 -21t-4.5 -31.5t-2 -27.5q0 -46 15 -78q8 -17 24 -17q10 0 26.5 11t23.5 24q65 117 100 242q25 89 25 152q0 49 -29 64q-4 2 -4 5t-3 3zM402 600q45 -56 45 -152q0 -45 -13 -94q-56 -215 -128 -316
q-44 -62 -123 -62q-31 0 -55 10t-42 47q-19 41 -19 80q0 191 119 382q57 91 104 124q17 12 29 12q14 0 33.5 -10.5t23.5 -10.5q18 0 26 -10zM317 734q6 0 20 7l74 34q33 16 59 33q9 6 24 6q14 0 23 -9q7 -7 7 -16q0 -27 -7 -38q-9 -12 -59 -31l-92 -35q-14 -5 -28 -5
q-13 0 -17.5 3.5t-14.5 18.5q-5 8 -5 13q0 2 1 6t5 8.5t10 4.5z" />
    <glyph glyph-name="idieresis" unicode="&#xef;" horiz-adv-x="400" 
d="M326 546q-9 0 -53 -62q-70 -100 -101 -204q-12 -39 -14 -60q-1 -5 -3.5 -21t-4.5 -31.5t-2 -27.5q0 -46 15 -78q8 -17 24 -17q10 0 26.5 11t23.5 24q65 117 100 242q25 89 25 152q0 49 -29 64q-4 2 -4 5t-3 3zM402 600q45 -56 45 -152q0 -45 -13 -94q-56 -215 -128 -316
q-44 -62 -123 -62q-31 0 -55 10t-42 47q-19 41 -19 80q0 191 119 382q57 91 104 124q17 12 29 12q14 0 33.5 -10.5t23.5 -10.5q18 0 26 -10zM408 741q-4 0 -16 -6q-56 -28 -66 -38q-3 -3 -15 -3q-17 0 -23 10q-6 9 -6 14q0 20 5 33q0 1 7 11q5 8 46 25l73 31q7 3 19 3
q19 0 23 -9l3.5 -3.5t4.5 -7.5l41 -103q6 -15 6 -23q0 -5 -1 -8t-2.5 -4.5l-4 -4t-3.5 -4.5q-6 -11 -23 -11q-16 0 -23 14l-38 74q-5 10 -7 10z" />
    <glyph glyph-name="eth" unicode="&#xf0;" horiz-adv-x="556" 
d="M148 382h38q41 0 68 -3q17 60 52 148q8 20 12 21q8 2 20 8q7 4 23 4q5 0 8.5 -0.5t4.5 -1t1.5 -1t1.5 -0.5q7 0 9 -6l3 -21q5 -34 34 -153q72 0 75 3q12 12 38 12q11 0 24 -2l13 -1q12 0 12 -6q0 -1 2.5 -6.5t2.5 -13.5q0 -7 -1 -16t-2.5 -15t-1.5 -7q0 -7 -10 -15
q-7 -6 -26 -22.5t-40.5 -35.5t-43.5 -38q13 -50 23.5 -90.5t15 -56.5t8 -28t4.5 -21q2 -12 2 -15q0 -7 -11 -12q-2 -1 -4 -2.5t-4 -2.5t-8.5 -2t-18.5 -1q-18 0 -30 12q-3 3 -5.5 8.5t-3.5 6.5q-4 5 -43 41l-58 54q-17 -15 -47 -40t-50 -42.5t-27 -24.5q-11 -11 -22 -11
l-24 4q-8 2 -14 5q-4 3 -6 7.5t-6 7.5q-8 6 -8 9q0 6 16 52.5t18 48.5q5 5 11 20.5t14.5 43.5t12.5 40q-9 8 -94 83q-13 12 -13 18q0 4 -1.5 14.5t-1.5 17.5q0 2 2 9.5t2 10.5q1 7 14 7q14 0 22.5 -0.5t12.5 -1.5t5 -1z" />
    <glyph glyph-name="ntilde" unicode="&#xf1;" horiz-adv-x="400" 
d="M326 546q-9 0 -53 -62q-70 -100 -101 -204q-12 -39 -14 -60q-1 -5 -3.5 -21t-4.5 -31.5t-2 -27.5q0 -46 15 -78q8 -17 24 -17q10 0 26.5 11t23.5 24q65 117 100 242q25 89 25 152q0 49 -29 64q-4 2 -4 5t-3 3zM402 600q45 -56 45 -152q0 -45 -13 -94q-56 -215 -128 -316
q-44 -62 -123 -62q-31 0 -55 10t-42 47q-19 41 -19 80q0 191 119 382q57 91 104 124q17 12 29 12q14 0 33.5 -10.5t23.5 -10.5q18 0 26 -10zM337 828q5 0 11 -9q6 -7 31 -30l77 -69q18 -16 18 -24q0 -1 -7 -31q-3 -14 -21 -14q-19 0 -31 9l-77 67q-14 11 -51 33q-7 4 -7 17
q0 27 11 41q11 13 27 13q8 0 13 -1.5t6 -1.5z" />
    <glyph glyph-name="ograve" unicode="&#xf2;" horiz-adv-x="488" 
d="M365 217q-117 -154 -174 -211q-8 -8 -17 -12q-14 -6 -29 -6q-29 0 -40 16q-8 12 -22 15l-3 1q-4 1 -5 1.5t-3.5 2t-3.5 3t-2.5 4t-2 6t-0.5 7.5q0 42 1 56q5 77 31 157q22 67 69 188t60 156q4 11 10 23q9 18 15.5 22.5t18.5 4.5q6 0 16.5 -6.5t14.5 -7.5q16 -5 17 -13
q2 -14 2 -22q0 -6 -9 -29q-17 -45 -57 -136.5t-64 -159t-36 -132.5q-8 -42 -8 -55q0 -9 3 -9q4 0 19 17q178 203 300 416q7 11 14.5 28t7.5 18q6 11 21 26q3 3 13 3q3 0 13.5 -1.5t13.5 -1.5q11 0 15 -10l10 -22q4 -8 4 -13q0 -2 -8 -24q-8 -21 -27.5 -58t-29.5 -64
q-72 -198 -84 -395q0 -7 -0.5 -14.5t-0.5 -11.5l-1 -4q0 -12 -20 -12q-6 0 -26 8q-11 4 -27 20q-1 1 -4.5 3t-5.5 5t-2 10q0 4 3 19q0 1 2.5 5.5t3.5 12.5q4 25 9 62.5t9.5 63.5t8.5 45q3 13 3 18q0 3 -2 3t-14 -16zM419 726q6 0 20 7l74 34q33 16 59 33q9 6 24 6
q14 0 23 -9q7 -7 7 -16q0 -27 -7 -38q-9 -12 -59 -31l-92 -35q-14 -5 -28 -5q-13 0 -17.5 3.5t-14.5 18.5q-5 8 -5 13q0 2 1 6t5 8.5t10 4.5z" />
    <glyph glyph-name="oacute" unicode="&#xf3;" horiz-adv-x="488" 
d="M365 217q-117 -154 -174 -211q-8 -8 -17 -12q-14 -6 -29 -6q-29 0 -40 16q-8 12 -22 15l-3 1q-4 1 -5 1.5t-3.5 2t-3.5 3t-2.5 4t-2 6t-0.5 7.5q0 42 1 56q5 77 31 157q22 67 69 188t60 156q4 11 10 23q9 18 15.5 22.5t18.5 4.5q6 0 16.5 -6.5t14.5 -7.5q16 -5 17 -13
q2 -14 2 -22q0 -6 -9 -29q-17 -45 -57 -136.5t-64 -159t-36 -132.5q-8 -42 -8 -55q0 -9 3 -9q4 0 19 17q178 203 300 416q7 11 14.5 28t7.5 18q6 11 21 26q3 3 13 3q3 0 13.5 -1.5t13.5 -1.5q11 0 15 -10l10 -22q4 -8 4 -13q0 -2 -8 -24q-8 -21 -27.5 -58t-29.5 -64
q-72 -198 -84 -395q0 -7 -0.5 -14.5t-0.5 -11.5l-1 -4q0 -12 -20 -12q-6 0 -26 8q-11 4 -27 20q-1 1 -4.5 3t-5.5 5t-2 10q0 4 3 19q0 1 2.5 5.5t3.5 12.5q4 25 9 62.5t9.5 63.5t8.5 45q3 13 3 18q0 3 -2 3t-14 -16zM476 759q-4 0 -16 -6q-56 -28 -66 -38q-3 -3 -15 -3
q-17 0 -23 10q-6 9 -6 14q0 20 5 33q0 1 7 11q5 8 46 25l73 31q7 3 19 3q19 0 23 -9l3.5 -3.5t4.5 -7.5l41 -103q6 -15 6 -23q0 -5 -1 -8t-2.5 -4.5l-4 -4t-3.5 -4.5q-6 -11 -23 -11q-16 0 -23 14l-38 74q-5 10 -7 10z" />
    <glyph glyph-name="ocircumflex" unicode="&#xf4;" horiz-adv-x="488" 
d="M365 217q-117 -154 -174 -211q-8 -8 -17 -12q-14 -6 -29 -6q-29 0 -40 16q-8 12 -22 15l-3 1q-4 1 -5 1.5t-3.5 2t-3.5 3t-2.5 4t-2 6t-0.5 7.5q0 42 1 56q5 77 31 157q22 67 69 188t60 156q4 11 10 23q9 18 15.5 22.5t18.5 4.5q6 0 16.5 -6.5t14.5 -7.5q16 -5 17 -13
q2 -14 2 -22q0 -6 -9 -29q-17 -45 -57 -136.5t-64 -159t-36 -132.5q-8 -42 -8 -55q0 -9 3 -9q4 0 19 17q178 203 300 416q7 11 14.5 28t7.5 18q6 11 21 26q3 3 13 3q3 0 13.5 -1.5t13.5 -1.5q11 0 15 -10l10 -22q4 -8 4 -13q0 -2 -8 -24q-8 -21 -27.5 -58t-29.5 -64
q-72 -198 -84 -395q0 -7 -0.5 -14.5t-0.5 -11.5l-1 -4q0 -12 -20 -12q-6 0 -26 8q-11 4 -27 20q-1 1 -4.5 3t-5.5 5t-2 10q0 4 3 19q0 1 2.5 5.5t3.5 12.5q4 25 9 62.5t9.5 63.5t8.5 45q3 13 3 18q0 3 -2 3t-14 -16zM419 834q5 0 11 -9q6 -7 31 -30l77 -69q18 -16 18 -24
q0 -1 -7 -31q-3 -14 -21 -14q-19 0 -31 9l-77 67q-14 11 -51 33q-7 4 -7 17q0 27 11 41q11 13 27 13q8 0 13 -1.5t6 -1.5z" />
    <glyph glyph-name="otilde" unicode="&#xf5;" horiz-adv-x="184" 
d="M116 66q15 0 51 32q26 23 46 23q33 0 33 -19q0 -12 -15 -29l-36 -39q-45 -48 -94 -48q-27 0 -45.5 31.5t-18.5 61.5q0 63 19 109q4 10 9.5 27.5t7.5 22.5q10 24 27.5 68t33 81.5t31.5 71.5q13 28 50 28q24 0 32 -8q5 -5 5 -12q0 -24 -9.5 -44.5t-25.5 -44.5t-24 -42
q-26 -61 -57 -142q-27 -73 -27 -110q0 -18 7 -18z" />
    <glyph glyph-name="odieresis" unicode="&#xf6;" 
d="M384 773q-4 0 -16 -6q-56 -28 -66 -38q-3 -3 -15 -3q-17 0 -23 10q-6 9 -6 14q0 21 5 33q0 1 7 11q5 8 46 25l73 31q7 3 19 3q19 0 23 -9l3.5 -3.5t4.5 -7.5l41 -103q6 -15 6 -23q0 -5 -1 -8t-2.5 -4.5l-4 -4t-3.5 -4.5q-6 -11 -23 -11q-16 0 -23 14l-38 74q-5 10 -7 10z
" />
    <glyph glyph-name="divide" unicode="&#xf7;" 
d="M415 764q5 0 25 8q33 13 44 13q20 0 22 -19q1 -14 1 -22q0 -4 -8 -10q-28 -20 -41 -28q-28 -16 -52 -16q-44 0 -61 46q-9 24 -14 24q-6 0 -21 -11q-13 -9 -26 -9q-34 0 -34 14q0 8 -1.5 16.5t-1.5 15.5q0 16 7 19l52 23q23 10 43 10q29 0 45 -39q9 -24 12.5 -29.5
t8.5 -5.5z" />
    <glyph glyph-name="oslash" unicode="&#xf8;" 
d="M317 786q14 -2 71 -2q16 0 54 1.5t50 1.5q16 0 16 -10q0 -2 2.5 -5t2.5 -7q0 -1 -1 -5t-1 -5q0 -18 -8 -31q-5 -9 -21 -9q-6 0 -15 1t-14 1t-52.5 -1.5t-72.5 -1.5q-54 0 -69 4q-16 4 -16 44q0 15 3 19q6 7 33 7q26 0 38 -2z" />
    <glyph glyph-name="ugrave" unicode="&#xf9;" 
d="M338 840q10 -20 10 -35q0 -1 -1 -4t-1 -5q0 -9 6 -21q12 -24 30 -24q17 0 49 34q22 22 29.5 27t15.5 5q13 0 16.5 -1.5t4.5 -9.5q1 -3 4.5 -9.5t3.5 -12.5q0 -8 -10 -21q-33 -44 -58.5 -60.5t-60.5 -16.5q-90 0 -107 117q-1 7 -1 12q0 6 6 14q4 6 10 7q10 2 18 10
q6 6 15 6q15 0 21 -12z" />
    <glyph glyph-name="uacute" unicode="&#xfa;" 
d="M395 816q34 0 42 -14q8 -11 8 -34q0 -10 -6 -17q-21 -28 -27 -34q-18 -18 -36 -18q-25 0 -37 16q-7 9 -7 32q0 30 14 51q12 18 49 18z" />
    <glyph glyph-name="ucircumflex" unicode="&#xfb;" 
d="M372 706q2 0 5 7l9 18q14 27 14 41q0 13 -4 25q-2 6 -4 6q-1 0 -5 -6q-24 -38 -24 -65q0 -26 9 -26zM434 837q19 -15 24 -25t5 -31q0 -41 -27 -88q-17 -30 -56 -30q-49 0 -64 19q-19 23 -19 51q0 19 19 58t38 49q14 7 39 7q28 0 41 -10z" />
    <glyph glyph-name="udieresis" unicode="&#xfc;" horiz-adv-x="278" 
d="M27 -79q14 -3 14 -15q0 -5 8 -13q4 -4 12 -4t20 14q9 10 26 46q6 12 6 26q0 6 -3 12l-19 41h59l23 -51q6 -13 6 -30q0 -25 -17 -55q-21 -34 -40 -47.5t-44 -13.5q-30 0 -54 14q-27 16 -38 35q-4 7 -4 16q0 6 6 15t11 12q4 2 11 2q9 0 13 -2z" />
    <glyph glyph-name="yacute" unicode="&#xfd;" 
d="M275 751q0 4 4.5 10.5t15.5 21t21 29.5l33 50q18 28 43 53q3 3 11 3q11 0 15 -2q16 -8 23 -18q11 -14 11 -23q0 -4 -2.5 -9t-5.5 -10t-4 -7q-1 -4 -11 -11q-8 -5 -35 -39q-48 -62 -56 -74q-9 -13 -30 -13q-20 0 -20 13q0 17 -8 19q-5 1 -5 7zM527 793q-5 -1 -14 -10
l-90 -94q-8 -8 -19 -8q-9 0 -11 3t-9 4t-11 7q-8 11 -8 18q0 3 3 9q7 13 14 19q3 3 7 8t9 12t8 11l65 80q13 16 21.5 20.5t24.5 4.5q11 0 13 -2q3 -3 6 -8.5t8 -10.5q9 -9 9 -26q0 -5 -11.5 -20.5t-14.5 -16.5z" />
    <glyph glyph-name="thorn" unicode="&#xfe;" horiz-adv-x="286" 
d="M105 -107q4 0 9 4t28 4q27 0 27 -10q0 -9 -7 -21q-3 -4 -3.5 -11.5t-5.5 -14.5q-10 -14 -57 -14q-48 0 -63 29q-9 17 -9 42q0 39 19.5 80.5t41.5 66.5h68q-34 -39 -54 -88q-9 -22 -9 -43q0 -24 15 -24z" />
    <glyph glyph-name="ydieresis" unicode="&#xff;" 
d="M387 769q3 0 7 3q7 4 12.5 8.5t10.5 7.5l52 34q9 6 20 6q9 0 12 -3t3 -15q0 -2 0.5 -7t0.5 -8q0 -5 -4 -14q-3 -7 -18 -18l-86 -65q-8 -6 -12 -7.5t-5 -2.5q-3 -2 -15 -2q-17 0 -22 10l-35 70q-14 24 -14 41q0 27 17 45q7 7 27 7q9 0 10.5 -1t3.5 -6q3 -12 29 -73
q4 -10 6 -10z" />
    <glyph glyph-name="OE" unicode="&#x152;" horiz-adv-x="334" 
d="M282 570q-86 -134 -86 -195q0 -25 8.5 -41t18.5 -16q2 0 7 4.5t12.5 14t14.5 21.5q75 131 75 181q0 18 -8 31q-5 8 -5 21q0 6 -3 6q-17 0 -34 -27zM118 227h31q26 0 60 1.5t58 3t26 1.5q21 0 43 -5q5 -1 5 -4q0 -2 -2 -4t-2 -3q0 -3 7 -10.5t7 -12.5q0 -10 -12 -28
q-5 -8 -43 -8q-11 0 -37 0.5t-35 0.5q-11 0 -45 -2.5t-67 -2.5q-49 0 -61 4q-13 4 -17 7.5t-4 10.5t-2 13q-2 7 -2 28q0 14 16 16q7 1 26 1q14 0 30 -3.5t20 -3.5zM374 631q37 -22 37 -93q0 -96 -88 -219q-23 -32 -44.5 -41t-57.5 -9q-59 0 -81 43q-19 38 -19 73
q0 63 55 167t139 104q19 0 25 -3t10.5 -8t6.5 -6q2 -2 8.5 -4.5t8.5 -3.5z" />
    <glyph glyph-name="oe" unicode="&#x153;" horiz-adv-x="586" 
d="M218 -5q-3 0 -46.5 -3.5t-61.5 -3.5q-30 0 -45 3q-6 1 -6 5q0 6 -3 8q-11 5 -11 29q0 23 5 28q2 2 21 2q25 0 42 -1t30 -1q14 0 14 7q0 3 -9 16q-44 65 -44 166q0 114 48 215q44 91 116 146t145 55q61 0 93 -12.5t54 -51.5q4 -7 14 -22t18 -29.5t13 -32.5q15 -52 15 -89
q0 -23 -1 -35q-5 -54 -29.5 -127.5t-68.5 -133.5q-13 -18 -38 -43q-6 -6 -6 -9q0 -5 5 -5q1 0 13.5 1t27.5 2t23 1q13 0 15 -1q8 -5 8 -10q0 -2 -2.5 -5t-2.5 -6v-3q1 -3 1 -5q0 -6 -13 -37q-3 -8 -17 -8q-24 0 -44 -1.5t-24 -1.5q-11 0 -26 1t-21 1q-10 0 -30 -1.5
t-26 -1.5q-12 0 -15 2.5t-3 15.5q0 10 6 23.5t6 16.5q1 11 13 17q3 2 6.5 6t8.5 8q12 9 47 50q22 26 48 80t40 113q12 48 12 105q0 81 -31.5 118t-81.5 37q-43 0 -91.5 -38.5t-81.5 -100.5q-55 -103 -55 -214q0 -108 72 -171q8 -7 8 -17q0 -7 -6 -21.5t-6 -20.5
q0 -4 -10 -10q-9 -5 -32 -5z" />
    <glyph glyph-name="Scaron" unicode="&#x160;" horiz-adv-x="455" 
d="M385 589v-589h-46v589h-42v-589h-46v353q-55 0 -89 38t-34 103t34 103t89 38h180v-46h-46z" />
    <glyph glyph-name="scaron" unicode="&#x161;" horiz-adv-x="534" 
d="M408 549q-2 0 -6 -1.5t-5 -1.5q-6 -1 -10 -9q-22 -45 -41 -102q6 0 20 11q47 36 47 98q0 5 -5 5zM394 250q-34 0 -48 26q-19 34 -29 73q-17 -62 -17 -83q0 -13 -26 -13q-14 0 -23 6q-2 1 -5 3t-5 3t-3.5 3t-1.5 5q0 34 43 169q11 34 24 65q3 7 3 10t-3 7q-8 11 -8 23
q0 3 4 6q54 42 105 42q45 0 65 -22q11 -12 11 -32q0 -52 -26 -92q-31 -48 -83 -58q17 -52 26 -67t27 -22q8 -3 8 -23q0 -18 -8 -23.5t-30 -5.5zM530 480q0 74 -34 116.5t-99 42.5q-55 0 -102.5 -49t-72 -116.5t-24.5 -129.5q0 -65 34 -107t83 -42q72 0 124 54q47 49 69 113
t22 118zM314 139q-64 0 -109 37q-79 66 -79 166q0 79 31.5 160t91.5 138t132 57q61 0 91 -10.5t50 -41.5q1 -2 24.5 -29.5t34.5 -52.5q19 -46 19 -91q0 -39 -10 -82t-32.5 -88t-54.5 -81t-81.5 -59t-107.5 -23z" />
    <glyph glyph-name="Ydieresis" unicode="&#x178;" horiz-adv-x="494" 
d="M370 251q50 60 84 115q28 46 28 75q0 10 -2 10q-4 0 -16 -13q-54 -61 -108 -171q-24 -49 -24 -53q0 -2 2 -2t36 39zM348 439q-6 0 -44 -27q-146 -108 -199 -250q-20 -54 -20 -72q0 -22 10 -22q17 0 29 14q60 70 90 101q24 25 55.5 77.5t47.5 85.5l26 55q11 24 11 29
q0 9 -6 9zM217 83q-1 0 -9 -11q-19 -27 -36 -40q-40 -34 -81 -34q-14 0 -24 7q-28 21 -36 29q-18 18 -18 65q0 53 48 145q42 81 96 140q46 52 89 80q57 38 92 38q29 0 40 -10q5 -4 7 -4q3 0 5 4q1 2 5.5 9.5t5.5 9.5q2 4 16 4q6 0 19 -5.5t14 -5.5q4 0 16 5q16 7 36 7
q34 0 47 -18q13 -20 13 -48q0 -25 -12.5 -58.5t-23.5 -50.5q-42 -65 -109 -139.5t-112 -96.5q-6 -3 -6 -18q0 -32 20 -32q11 0 31 9q25 12 48 29q24 20 62.5 55t57.5 51q39 33 60 33q11 0 15 -4q8 -8 8 -16q0 -20 -9 -29q-14 -14 -31 -33.5t-45 -47.5q-46 -47 -117 -90
q-36 -21 -83 -21q-33 0 -54 8q-43 17 -43 76v5q0 3 -2 3z" />
    <glyph glyph-name="Zcaron" unicode="&#x17d;" horiz-adv-x="387" 
d="M227 144q4 0 33.5 3.5t49.5 3.5q16 0 21 -6q6 -7 6 -12q0 -11 -9 -40q-4 -12 -16 -12q-9 0 -18 2t-11 2q-1 0 -17 -2t-34.5 -4t-25.5 -2q-5 0 -10 -14q-23 -66 -23 -83v-11q0 -4 -7.5 -21.5t-10.5 -32.5q-4 -20 -39 -20q-10 0 -13 3t-8 4q-8 1 -14 5.5t-8 8t-2 4.5
q0 4 8 30t12 36q2 4 8.5 28t10.5 33q6 16 6 20q0 3 -3 3q-6 0 -18 -1t-17 -1q-27 0 -34 5q-18 10 -18 44q0 7 6 17q4 7 21 7q11 0 30 -3t30 -3q17 0 20.5 1t6.5 8q9 21 9 31q0 3 -3 3h-21q-48 0 -54 3q-10 6 -10 48q0 5 7 15q7 8 24 8q11 0 32 -4t30 -4q16 0 17 15
q3 59 10 150q2 24 8 97q1 12 1 23q0 7 -0.5 17.5t-0.5 15.5l1 15q2 15 2 25t5 20q5 9 16 9q2 0 11 2.5t19 2.5q23 0 28 -7q6 -8 6 -19q0 -2 1 -7.5t1 -10.5q0 -8 -3 -39q-2 -21 -7 -68.5t-8 -78.5t-3 -39q0 -5 1 -5t7 7q1 1 23.5 27t52.5 62t56 68q31 38 41 74q6 22 6 31
q0 11 27 11q9 0 17 -2.5t10 -2.5q4 0 10 -4t8 -4q11 0 11 -17q0 -26 -22.5 -68.5t-44.5 -66.5q-37 -41 -81.5 -93t-69.5 -80.5t-29 -31.5q-9 -6 -9 -11q0 -4 3 -4q1 0 11 2t24.5 4t25.5 2q24 0 31 -7q3 -3 3 -14q0 -18 -9 -34q-1 -2 -3 -7t-4 -8t-12 -3q-4 0 -11.5 1t-9.5 1
t-13.5 -1t-29.5 -2.5t-29 -2.5t-13 -6q-12 -33 -12 -35q0 -3 3 -3z" />
    <glyph glyph-name="zcaron" unicode="&#x17e;" horiz-adv-x="517" 
d="M487 577q-6 0 -55 -2.5t-71 -2.5q-5 0 -6 -6q-1 -4 -10 -29t-23 -63.5t-24 -69.5q-5 -16 -13.5 -35.5t-15 -33.5t-7.5 -17q-4 -17 -19 -57t-30.5 -78t-16.5 -42q-72 -204 -75 -239q0 -5 -3.5 -18.5t-3.5 -18.5q0 -4 0.5 -9t0.5 -10q0 -9 -3 -18q-4 -11 -24 -21.5
t-35 -10.5q-5 0 -8 1t-6.5 4t-4.5 4q-2 2 -6.5 2.5t-5.5 3.5q-3 7 -3 17q0 11 1 23q4 49 21 98l43 121q53 149 158 430q21 56 21 60q0 7 -5 7q-9 0 -36 -4.5t-32 -7.5q-8 -5 -24 -5q-22 0 -31 15q-12 20 -12 37q0 6 5 16q6 11 8 11q4 0 7 1q12 4 29 11.5t22 9.5q15 5 27 5
q9 0 17 -3.5t13 -3.5h5q5 0 15 0.5t24.5 0.5h37h49.5q28 0 43 3q16 4 37 4q29 0 44 3q8 2 31.5 2.5t31.5 1.5q46 5 73 26q4 3 20 3q32 0 42 -14q18 -25 18 -33q0 -4 -1.5 -10t-1.5 -9q0 -1 -3.5 -5t-10.5 -8.5t-13 -7.5q-30 -13 -58 -15q-11 -1 -32.5 -6t-37.5 -5
q-3 0 -3 -3t3.5 -8.5t3.5 -9.5q0 -5 -1.5 -12.5t-1.5 -10.5q0 -17 -17 -64l-34 -94q-1 -3 -12 -27.5t-15 -38.5q-2 -7 -6 -18t-13 -36t-20 -60q-11 -34 -41.5 -123t-38.5 -117q-3 -11 -12 -64q0 -3 -5 -24.5t-5 -24.5t2 -8.5t2 -8.5q0 -9 -16 -19q-24 -15 -58 -15
q-15 0 -15 6q0 4 -4 8q-5 5 -5 11q0 43 37 170q8 28 26.5 78.5t20.5 59.5q7 24 29 85t41 119q24 70 47.5 136t32.5 93q4 12 4 14q0 3 -3 3z" />
    <glyph glyph-name="Euro" unicode="&#x20ac;" horiz-adv-x="333" 
d="M176 105q3 0 12 4q21 10 33 28q27 39 27 87q0 29 -21 134q-1 7 -3 7t-8.5 -4.5t-16 -13t-16.5 -18.5q-13 -16 -20 -39q-7 -21 -7 -48q0 -41 18 -135q0 -2 2 -2zM57 -126q3 0 12.5 6.5t12.5 11.5q21 37 21 74q0 42 -18 126q-13 61 -13 105q0 89 23 134q21 40 48.5 66
t48.5 34q16 6 16 10v11q-1 11 -1 23q0 98 62 160q37 37 100 37q30 0 42 -16q20 -22 20 -74q0 -31 -10 -34q-1 0 -14.5 -8.5t-31.5 -8.5q-15 0 -16 7q-3 16 -3 25q0 17 -2 24q-7 23 -13 23q-17 0 -34 -28q-17 -27 -17 -70q0 -45 25 -130q17 -59 17 -119q0 -29 -4 -59
q-4 -36 -15 -59q-13 -27 -36 -54q-3 -4 -20.5 -20.5t-18.5 -18.5q-11 -14 -46 -23q-8 -2 -8 -10v-11q0 -75 -18 -106q-24 -41 -60 -74q-22 -20 -66 -20q-43 0 -67.5 28t-24.5 79q0 43 12 51q5 3 11.5 8.5t9.5 8t8.5 4.5t12.5 2q15 0 20 -3t6 -14q0 -8 1.5 -16t1.5 -16
q0 -30 8 -48t18 -18z" />
  </font>
</defs>
</svg>
