<?xml version="1.0" standalone="no"?>
<!DOCTYPE svg PUBLIC "-//W3C//DTD SVG 1.1//EN" "http://www.w3.org/Graphics/SVG/1.1/DTD/svg11.dtd" >
<svg xmlns="http://www.w3.org/2000/svg">
<metadata>Generated by IcoMoon</metadata>
<defs>
<font id="zeus-icons" horiz-adv-x="1024">
<font-face units-per-em="1024" ascent="960" descent="-64" />
<missing-glyph horiz-adv-x="1024" />
<glyph unicode="&#x20;" horiz-adv-x="512" d="" />
<glyph unicode="&#xe800;" glyph-name="calendar" d="M864-32h-704c-35.328 0-64 28.672-64 64v704c0 35.36 28.672 64 64 64h64v-32c0-53.024 42.976-96 96-96 52.992 0 96 42.976 96 96v32h192v-32c0-53.024 43.008-96 96-96s96 42.976 96 96v32h64c35.328 0 64-28.64 64-64v-704c0-35.328-28.672-64-64-64zM864 576h-704v-544h704v544zM320 416h-96v96h96v-96zM320 256h-96v96h96v-96zM320 96h-96v96h96v-96zM480 416h-96v96h96v-96zM480 256h-96v96h96v-96zM480 96h-96v96h96v-96zM640 416h-96v96h96v-96zM640 256h-96v96h96v-96zM640 96h-96v96h96v-96zM800 416h-96v96h96v-96zM800 256h-96v96h96v-96zM800 96h-96v96h96v-96zM703.008 704c-34.816 0-63.008 28.224-63.008 63.008v65.984c0 34.816 28.192 63.008 63.008 63.008s63.008-28.192 63.008-63.008v-65.984c0-34.784-28.192-63.008-63.008-63.008zM319.008 704c-34.816 0-63.008 28.224-63.008 63.008v65.984c0 34.816 28.192 63.008 63.008 63.008s63.008-28.192 63.008-63.008v-65.984c0-34.784-28.224-63.008-63.008-63.008z" />
<glyph unicode="&#xe805;" glyph-name="checkmark" d="M864 832l-480-480-224 224-160-160 384-384 640 640z" />
<glyph unicode="&#xe806;" glyph-name="cancel" d="M726 294l-154 154 154 154-60 60-154-154-154 154-60-60 154-154-154-154 60-60 154 154 154-154zM512 874q176 0 301-125t125-301-125-301-301-125-301 125-125 301 125 301 301 125z" />
<glyph unicode="&#xe900;" glyph-name="cross" d="M840.052 921.972c0 0-329.728-329.681-329.728-329.681s-329.681 329.728-329.681 329.728c-39.331 39.284-103.052 39.331-142.383 0-39.284-39.284-39.284-103.052 0-142.336 0 0 329.728-329.775 329.728-329.775s-329.775-329.681-329.775-329.681c-39.284-39.331-39.284-103.052 0-142.383 39.377-39.331 103.098-39.331 142.429 0 0 0 329.681 329.728 329.681 329.728s329.728-329.728 329.728-329.728c39.284-39.284 103.052-39.331 142.383 0s39.284 103.098 0 142.383c0 0-329.728 329.681-329.728 329.681s329.728 329.728 329.728 329.728c39.284 39.238 39.331 103.005 0 142.336s-103.098 39.331-142.383 0z" />
<glyph unicode="&#xe901;" glyph-name="arrow-left" horiz-adv-x="1020" d="M116.868 478.54l255.697 253.286c12.010 11.94 12.010 31.273 0 43.188-12.010 11.94-31.453 11.94-43.428 0l-304.070-302.331c-11.828-11.76-11.828-31.428 0-43.188l304.070-302.367c12.010-11.94 31.453-11.94 43.428 0 12.010 11.94 12.010 31.273 0 43.188l-255.697 247.143h854.709c16.953 0 30.715 13.68 30.715 30.54s-13.762 30.54-30.715 30.54h-854.709z" />
<glyph unicode="&#xe902;" glyph-name="arrow-right" horiz-adv-x="1020" d="M903.132 478.54l-255.697 253.286c-12.010 11.94-12.010 31.273 0 43.188 12.010 11.94 31.453 11.94 43.428 0l304.070-302.331c11.828-11.76 11.828-31.428 0-43.188l-304.070-302.367c-12.010-11.94-31.453-11.94-43.428 0-12.010 11.94-12.010 31.273 0 43.188l255.697 247.143h-854.709c-16.953 0-30.715 13.68-30.715 30.54s13.762 30.54 30.715 30.54h854.709z" />
<glyph unicode="&#xe903;" glyph-name="pip-outline" d="M512-64c-282.77 0-512 229.23-512 512s229.23 512 512 512c282.77 0 512-229.23 512-512s-229.23-512-512-512zM512 872.229c-234.291 0-424.229-189.937-424.229-424.229s189.937-424.229 424.229-424.229c234.291 0 424.229 189.937 424.229 424.229s-189.937 424.229-424.229 424.229z" />
<glyph unicode="&#xe904;" glyph-name="chevron-left" horiz-adv-x="1031" d="M686.533-35.276c11.855-12.993 36.194-16.717 54.469-8.316s23.473 25.734 11.697 38.726l-419.407 460.824 419.407 460.824c11.776 12.993 6.577 30.326-11.697 38.726s-42.614 4.676-54.469-8.316l-447.055-491.234 447.055-491.234z" />
<glyph unicode="&#xe905;" glyph-name="chevron-right" horiz-adv-x="1031" d="M344.467-35.276c-11.855-12.993-36.194-16.717-54.469-8.316s-23.473 25.734-11.697 38.726l419.407 460.824-419.407 460.824c-11.776 12.993-6.577 30.326 11.697 38.726s42.614 4.676 54.469-8.316l447.055-491.234-447.055-491.234z" />
<glyph unicode="&#xe906;" glyph-name="chevron-up" horiz-adv-x="1031" d="M998.776 276.967c12.993-11.855 16.717-36.194 8.316-54.469s-25.734-23.473-38.726-11.697l-460.824 419.407-460.824-419.407c-12.993-11.776-30.326-6.577-38.726 11.697s-4.676 42.614 8.316 54.469l491.234 447.055 491.234-447.055z" />
<glyph unicode="&#xe907;" glyph-name="chevron-down" horiz-adv-x="1031" d="M32.224 619.033c-12.993 11.855-16.717 36.194-8.316 54.469s25.734 23.473 38.726 11.697l460.824-419.407 460.824 419.407c12.993 11.776 30.326 6.577 38.726-11.697s4.676-42.614-8.316-54.469l-491.234-447.055-491.234 447.055z" />
<glyph unicode="&#xe908;" glyph-name="minus" d="M0 512h1024v-138.378h-1024v138.378z" />
<glyph unicode="&#xe909;" glyph-name="plus" d="M1024 378.811h-442.811v-442.811h-138.378v442.811h-442.811v138.378h442.811v442.811h138.378v-442.811h442.811v-138.378z" />
<glyph unicode="&#xe90a;" glyph-name="facebook" horiz-adv-x="1029" d="M1011.833 6.772c0-30.237-24.87-54.772-55.551-54.772h-256.508v384.16h130.844l19.605 149.697h-150.45v95.601c0 43.342 12.229 72.876 75.293 72.876l80.448 0.027v133.917c-13.929 1.811-61.666 5.891-117.218 5.891-115.984 0-195.389-69.768-195.389-197.903v-110.408h-131.174v-149.697h131.174v-384.16h-482.113c-30.682 0-55.551 24.536-55.551 54.772v882.457c0 30.264 24.869 54.772 55.551 54.772h895.485c30.682 0 55.551-24.508 55.551-54.772v-882.457z" />
<glyph unicode="&#xe90b;" glyph-name="google-plus" horiz-adv-x="1027" d="M328.328 517.787v-125.493c0 0 120.319 0.172 169.312 0.172-26.535-81.366-67.781-125.668-169.312-125.668-102.751 0-182.943 84.277-182.943 188.25 0 103.948 80.197 188.23 182.943 188.23 54.328 0 89.407-19.321 121.589-46.25 25.756 26.061 23.603 29.789 89.144 92.422-55.64 51.229-129.575 82.455-210.728 82.455-172.956 0-313.181-141.854-313.181-316.859s140.23-316.88 313.181-316.88c258.519 0 321.712 227.765 300.764 379.62h-300.764zM892.65 511.522v109.8h-77.504v-109.8h-111.644v-78.434h111.644v-112.954h77.504v112.954h108.518v78.434h-108.518z" />
<glyph unicode="&#xe90c;" glyph-name="instagram" horiz-adv-x="1019" d="M886.053 928h-742.538c-63.952 0-115.789-50.955-115.789-113.85v-732.3c0-62.868 51.837-113.85 115.789-113.85h742.538c63.952 0 115.789 50.982 115.789 113.85v732.3c0 62.895-51.837 113.85-115.789 113.85v0zM727.885 778.015c0 16.548 13.631 29.982 30.422 29.982h91.319c16.818 0 30.449-13.432 30.449-29.982v-90.022c0-16.548-13.631-29.982-30.449-29.982h-91.319c-16.791 0-30.422 13.432-30.422 29.982v90.022zM515.914 631.069c103.461 0 187.341-82.482 187.341-184.182 0-101.726-83.88-184.182-187.341-184.182-103.435 0-187.315 82.455-187.315 184.182 0 101.7 83.88 184.182 187.315 184.182v0zM910.525 88.003c0-16.548-13.631-30.008-30.449-30.008h-730.581c-16.818 0-30.449 13.458-30.449 30.008v450.006h121.768c-15.861-22.492-21.228-64.466-21.228-91.123 0-160.641 132.953-291.354 296.329-291.354 163.402 0 296.355 130.713 296.355 291.354 0 26.655-3.853 67.974-23.514 91.123h121.768v-450.006z" />
<glyph unicode="&#xe90d;" glyph-name="location-pin" horiz-adv-x="1018" d="M509.625 452.915c-86.944 0-157.502 70.82-157.502 158.188 0 87.45 70.557 158.228 157.502 158.228s157.502-70.82 157.502-158.228c0-87.327-70.557-158.188-157.502-158.188zM509.625 960c-192.534 0-348.598-156.754-348.598-350.167 0-182.682 157.871-418.324 263.297-533.053 39.386-42.803 85.26-100.516 85.26-100.516s49.283 58.040 91.544 102.113c105.343 109.937 257.054 330.67 257.054 531.456 0 193.413-156.064 350.167-348.557 350.167z" />
<glyph unicode="&#xe90e;" glyph-name="mail" horiz-adv-x="1019" d="M997.457 159.423l-286.223 288.577 287.013 286.983v-575.563h-0.791zM67.442 105.363l288.595 289.375 63.431-62.806c23.786-23.849 52.326-39.751 87.216-39.751s63.431 15.905 87.216 39.751l63.431 62.806 288.595-289.375h-878.481zM947.506 795.399l-411.486-414.185c-7.923-7.948-15.064-12.718-29.339-12.718s-21.404 4.772-29.339 12.718l-411.486 414.185h881.653zM15.907 734.983l287.013-286.983-287.013-288.577v575.563z" />
<glyph unicode="&#xe90f;" glyph-name="phone" d="M977.296 218.833c-42.352 43.513-162.738 125.027-241.641 125.027-18.275 0-34.23-4.061-47.284-12.474-38.581-24.657-69.33-43.803-84.125-43.803-8.122 0-16.825 7.252-35.971 23.787l-3.191 2.901c-53.086 46.124-64.399 58.017-84.995 79.483l-5.222 5.512c-3.771 3.771-6.962 7.252-10.153 10.443-17.985 18.565-31.039 31.909-77.163 84.125l-2.031 2.321c-22.046 24.947-36.551 41.192-37.421 53.086-0.87 11.603 9.283 30.459 35.1 65.559 31.329 42.352 32.49 94.568 3.771 155.195-22.917 47.864-60.338 93.697-93.407 134.019l-2.901 3.481c-28.428 34.81-61.498 52.215-98.339 52.215-40.902 0-74.842-22.046-92.827-33.65-1.45-0.87-2.901-2.031-4.351-2.901-40.322-25.527-69.62-60.628-80.644-96.308-16.535-53.666-27.558-123.286 51.635-268.039 68.46-125.317 130.538-209.441 229.167-310.681 92.827-95.148 134.019-125.897 226.266-192.616 102.69-74.262 201.319-116.904 270.359-116.904 64.109 0 114.584 0 186.525 86.735 75.422 91.087 44.093 146.783-1.16 193.487v0z" />
<glyph unicode="&#xe910;" glyph-name="tick-bullet" horiz-adv-x="1021" d="M849.844 379.609c-30.352-138.118-140.936-247.092-281.14-277.080-273.063-58.398-510.003 194.674-430.205 457.3 45.365 149.268 186.026 258.388 352.141 258.388 80.073 0 154.179-25.419 214.618-68.392l75.559 74.414c-80.197 61.47-180.916 98.133-290.177 98.133-260.989 0-473.319-209.11-473.319-466.143s212.331-466.148 473.319-466.148c260.989 0 473.319 209.113 473.319 466.148 0 11.628-0.448 23.15-1.297 34.566l-112.819-111.185zM513.735 427.308l-186.907 184.079-124.186-122.29 311.137-306.738 498.623 491.419-124.202 122.311z" />
<glyph unicode="&#xe911;" glyph-name="twitter" horiz-adv-x="1028" d="M863.588 797.731c-38.264 40.784-92.954 66.269-153.498 66.269-116.052 0-210.241-94.048-210.241-210.034 0-16.473 1.809-32.44 5.423-47.825-174.793 8.772-329.747 92.291-433.539 219.524-18.119-31.134-28.465-67.255-28.465-105.724 0-72.828 37.114-137.125 93.585-174.787-34.435 1.013-66.923 10.556-95.333 26.176v-2.563c0-101.804 72.505-186.735 168.802-205.956-17.627-4.93-36.239-7.411-55.426-7.411-13.55 0-26.766 1.281-39.581 3.733 26.766-83.411 104.396-144.159 196.446-145.79-71.955-56.358-162.697-89.943-261.208-89.943-16.969 0-33.749 0.959-50.17 2.877 93.065-59.504 203.673-94.289 322.41-94.289 386.897 0 598.396 319.997 598.396 597.577 0 9.141-0.166 18.262-0.52 27.216 41.086 29.617 76.777 66.591 104.86 108.709-37.66-16.686-78.226-27.988-120.758-33.057 43.437 25.96 76.777 67.119 92.49 116.173-40.676-24.044-85.618-41.534-133.658-50.89z" />
<glyph unicode="&#xe912;" glyph-name="pip" d="M512 960c282.77 0 512-229.23 512-512s-229.23-512-512-512c-282.77 0-512 229.23-512 512s229.23 512 512 512z" />
</font>
</defs>
</svg>
